Скачать В тылу врага / Вражеские линии / Enemy Lines (Андерс Банке) [2020, Военный, история, реальные события, HDRip-AVC] | iTunes в Тас-икс (Tas-ix)

DL-List and Torrent activity
Size:  1.45 GB   |    Registered:  10 days   |    Completed:  7 times
Seeders:  8  [  65 KB/s  ]   Leechers:  2  [  172 KB/s  ]   Show peers in full details
   
 
Author Message

tohirali ®

Gender: Male

Longevity: 4 years 1 month

Posts: 758

Репутация: 249 [+]

Наличие запрета:

[Profile] [PM]

Post 15-Nov-2020 19:50

[Quote]

-В тылу врага / Вражеские линии / Enemy Lines--Информация о фильме:
Название: В тылу врага / Вражеские линии
Оригинальное название: Enemy Lines
Год выхода: 2020
Жанр: Военный, история, реальные события-Режиссер: Андерс Банке
В ролях: Эд Вествик, Джон Ханна, Том Уисдом, Кори Джонсон, Скотт Хейнинг, Павел Делонг, Гари Грант, Владимир Епифанцев, Жан-Марк Биркхольц, Даниэль Джиллингс
Описание: 1943 год, оккупированная Польша. Подразделение спецназа американо-британских союзников отправляется во вражеский тыл, чтобы вытащить польского ученого, доктора Фабиана, работающего в немецкой лаборатории.-Страна: Великобритания
Студия: Gaia Media, Happy Hour Films, Principal Film Finance
Продолжительность: 01:32:20
Перевод: Дублированный - iTunes
-
Информация о файле:
Кодек: AVC
Формат: MKV
Качество: HDRip-AVC
Видео: MPEG-4 AVC, 1024x428 (2.40:1), 23.976 fps, 1417 kbps, 0.135
Аудио RU: AC3, 6 ch, 48 kHz, 384 kbps
Аудио EN: AC3, 6 ch, 48 kHz, 448 kbps
Субтитры: Английские
Навигация по главам: Да

MI

General
Unique ID : 92761733225519409317786217131262071439 (0x45C9428D7975AF45E2A63F643CA7D28F)
Complete name : F:\My computer\For upload\,Vremyanka stuffs\Enemy Lines (2020) HDRip-AVC from wolf1245 & MediaBit.mkv
Format : Matroska
Format version : Version 4 / Version 2
File size : 1.45 GiB
Duration : 1h 32mn
Overall bit rate : 2 249 Kbps
Movie name : Enemy Lines (2020) HDRip-AVC from wolf1245 & MediaBit
Encoded date : UTC 2020-11-09 18:01:58
Writing application : mkvmerge v51.0.0 ('I Wish') 64-bit
Writing library : libebml v1.4.0 + libmatroska v1.6.2
Video
ID : 1
Format : AVC
Format/Info : Advanced Video Codec
Format profile : High@L4.1
Format settings, CABAC : Yes
Format settings, ReFrames : 12 frames
Codec ID : V_MPEG4/ISO/AVC
Duration : 1h 32mn
Bit rate : 1 417 Kbps
Width : 1 024 pixels
Height : 428 pixels
Display aspect ratio : 2.40:1
Frame rate mode : Constant
Frame rate : 23.976 fps
Color space : YUV
Chroma subsampling : 4:2:0
Bit depth : 8 bits
Scan type : Progressive
Bits/(Pixel*Frame) : 0.135
Stream size : 906 MiB (61%)
Title : wolf1245 & MediaBit
Writing library : x264 core 157 r2958 57baac4
Encoding settings : cabac=1 / ref=12 / deblock=1:-3:-3 / analyse=0x3:0x133 / me=umh / subme=11 / psy=1 / psy_rd=1.03:0.03 / mixed_ref=1 / me_range=48 / chroma_me=1 / trellis=2 / 8x8dct=1 / cqm=0 / deadzone=21,11 / fast_pskip=0 / chroma_qp_offset=-3 / threads=10 / lookahead_threads=2 / sliced_threads=0 / nr=0 / decimate=0 / interlaced=0 / bluray_compat=0 / constrained_intra=0 / bframes=12 / b_pyramid=2 / b_adapt=2 / b_bias=0 / direct=3 / weightb=1 / open_gop=0 / weightp=2 / keyint=240 / keyint_min=24 / scenecut=40 / intra_refresh=0 / rc_lookahead=60 / rc=2pass / mbtree=0 / bitrate=1417 / ratetol=1.0 / qcomp=0.60 / qpmin=0 / qpmax=69 / qpstep=4 / cplxblur=20.0 / qblur=0.5 / vbv_maxrate=50000 / vbv_bufsize=62500 / nal_hrd=none / filler=0 / ip_ratio=1.40 / pb_ratio=1.30 / aq=2:0.80
Language : English
Default : Yes
Forced : No
DURATION : 01:32:20.869000000
NUMBER_OF_FRAMES : 132848
NUMBER_OF_BYTES : 979742052
_STATISTICS_WRITING_APP : mkvmerge v51.0.0 ('I Wish') 64-bit
_STATISTICS_WRITING_DATE_UTC : 2020-11-09 18:01:58
_STATISTICS_TAGS : BPS DURATION NUMBER_OF_FRAMES NUMBER_OF_BYTES
Color primaries : BT.709
Transfer characteristics : BT.709
Matrix coefficients : BT.709
Audio #1
ID : 2
Format : AC-3
Format/Info : Audio Coding 3
Mode extension : CM (complete main)
Format settings, Endianness : Big
Codec ID : A_AC3
Duration : 1h 32mn
Bit rate mode : Constant
Bit rate : 384 Kbps
Channel(s) : 6 channels
Channel positions : Front: L C R, Side: L R, LFE
Sampling rate : 48.0 KHz
Bit depth : 16 bits
Compression mode : Lossy
Stream size : 254 MiB (17%)
Title : DUB | iTunes
Language : Russian
Default : Yes
Forced : No
DURATION : 01:32:20.544000000
NUMBER_OF_FRAMES : 173142
NUMBER_OF_BYTES : 265946112
_STATISTICS_WRITING_APP : mkvmerge v51.0.0 ('I Wish') 64-bit
_STATISTICS_WRITING_DATE_UTC : 2020-11-09 18:01:58
_STATISTICS_TAGS : BPS DURATION NUMBER_OF_FRAMES NUMBER_OF_BYTES
Audio #2
ID : 3
Format : AC-3
Format/Info : Audio Coding 3
Mode extension : CM (complete main)
Format settings, Endianness : Big
Codec ID : A_AC3
Duration : 1h 32mn
Bit rate mode : Constant
Bit rate : 448 Kbps
Channel(s) : 6 channels
Channel positions : Front: L C R, Side: L R, LFE
Sampling rate : 48.0 KHz
Bit depth : 16 bits
Compression mode : Lossy
Stream size : 296 MiB (20%)
Title : Original
Language : English
Default : No
Forced : No
DURATION : 01:32:21.088000000
NUMBER_OF_FRAMES : 173159
NUMBER_OF_BYTES : 310300928
_STATISTICS_WRITING_APP : mkvmerge v51.0.0 ('I Wish') 64-bit
_STATISTICS_WRITING_DATE_UTC : 2020-11-09 18:01:58
_STATISTICS_TAGS : BPS DURATION NUMBER_OF_FRAMES NUMBER_OF_BYTES
Text
ID : 4
Format : UTF-8
Codec ID : S_TEXT/UTF8
Codec ID/Info : UTF-8 Plain Text
Title : Full
Language : English
Default : No
Forced : No
DURATION : 01:26:57.968000000
NUMBER_OF_FRAMES : 1009
NUMBER_OF_BYTES : 28578
_STATISTICS_WRITING_APP : mkvmerge v51.0.0 ('I Wish') 64-bit
_STATISTICS_WRITING_DATE_UTC : 2020-11-09 18:01:58
_STATISTICS_TAGS : BPS DURATION NUMBER_OF_FRAMES NUMBER_OF_BYTES
Menu
00:00:00.000 : :Глава 01
00:05:36.836 : :Глава 02
00:10:39.389 : :Глава 03
00:17:13.406 : :Глава 04
00:25:36.869 : :Глава 05
00:32:54.306 : :Глава 06
00:37:29.122 : :Глава 07
00:42:33.926 : :Глава 08
00:46:46.220 : :Глава 09
00:54:46.450 : :Глава 10
01:00:03.308 : :Глава 11
01:07:50.066 : :Глава 12
01:10:31.060 : :Глава 13
01:15:10.798 : :Глава 14
01:24:25.560 : :Глава 15
01:28:49.699 : :Глава 16

Скриншоты

[202111.mytorrents.biz].t680932.torrent
 GOLD TORRENT! DOWNLOAD TRAFFIC DOES NOT CONSIDER! 
Осталось: [ 15-Dec-2020 19:53 ]
Torrent: Registered [ 2020-11-15 19:50 ] · DFCFE56F020530118B988004729AE7A49BCDBAE1

Download .torrent

Download


Помочь трекеру

Status: checked
Size: 1.45 GB   (Completed: 7 times)
Rate: 
(Vote: 2)
Has thanked: 3  Thanks   (List)
Золото/Серебро:

Инструкция
Похожие темы
Display posts:    
Reply to topic

Current time is: 25-Nov 20:57

All times are UTC + 5



You cannot post new topics in this forum
You cannot reply to topics in this forum
You cannot edit your posts in this forum
You cannot delete your posts in this forum
You cannot vote in polls in this forum
You cannot attach files in this forum
You cannot download files in this forum