Скачать Спайс бойз (Владимир Зинкевич) [2020, Триллер, драма, WEBRip-AVC] в Тас-икс (Tas-ix)

DL-List and Torrent activity
Size:  1.46 GB   |    Registered:  14 days   |    Completed:  2 times

Seeder not seen: 4 hours

 
 
 
 
Author Message

tohirali ®

Gender: Male

Longevity: 4 years 1 month

Posts: 758

Репутация: 249 [+]

Наличие запрета:

[Profile] [PM]

Post 15-Nov-2020 02:10

[Quote]

-Спайс бойз-- Информация о фильме
Название: Спайс бойз
Год выхода: 2020
Жанр: Триллер, драма-Режиссер: Владимир Зинкевич
В ролях: Маргарита Аброськина, Александр Головин, Александр Тарасов, Владимир Аверьянов, Анна Андрусенко, Михаил Горевой, Владимир Сычев, Алексей Маслодудов, Андрей Олефиренко, Игорь Шугалеев
О фильме: Василиса приезжает в маленький городок, в котором родилась, к школьной подруге Инне на свадьбу. Жених Инны по прозвищу Чистый с двумя друзьями, Ламбадой и Колбасой, организует за день до свадьбы незапланированный мальчишник в загородном доме. Вечеринка набирает обороты – в разгар веселья парни употребляют спайс. Их накрывает волной галлюцинаций, и мир вокруг начинает меняться – стремительно, всерьёз и бесповоротно. Основано на реальных событиях, произошедших в 2014 году в городе Гомеле.
Версия 18+ [ненормативная лексика].-Страна: Беларусь
Студия: АвантДрайв, LoonaFilm
Продолжительность: 01:45:36
Язык: Русский-Файл
Кодек: h.264
Качество: WEBRip-AVC
Видео: MPEG-4 AVC, ~ 1781 Кбит/с, 1024x432, 24 кадр/с
Аудио: AC3, 2 ch, 192 Кбит/с
Субтитры: Нет

MI

General
Unique ID : 233290290492441984561592756232702365102 (0xAF82135BCB53EDD88826199172C38DAE)
Complete name : F:\My computer\For upload\,Vremyanka stuffs\Спайс бойз.(2020).WEB-DLRip.(AVC).by.Серый1779.Files-x.mkv
Format : Matroska
Format version : Version 2
File size : 1.46 GiB
Duration : 1h 45mn
Overall bit rate : 1 974 Kbps
Encoded date : UTC 2020-11-13 07:35:46
Writing application : mkvmerge v7.8.0 ('River Man') 32bit built on Apr 3 2015 12:11:22
Writing library : libebml v1.3.1 + libmatroska v1.4.2
Video
ID : 1
Format : AVC
Format/Info : Advanced Video Codec
Format profile : High@L4.1
Format settings, CABAC : Yes
Format settings, ReFrames : 10 frames
Codec ID : V_MPEG4/ISO/AVC
Duration : 1h 45mn
Bit rate : 1 781 Kbps
Width : 1 024 pixels
Height : 432 pixels
Display aspect ratio : 2.40:1
Frame rate mode : Constant
Frame rate : 24.000 fps
Color space : YUV
Chroma subsampling : 4:2:0
Bit depth : 8 bits
Scan type : Progressive
Bits/(Pixel*Frame) : 0.168
Stream size : 1.29 GiB (88%)
Writing library : x264 core 146 r2538 121396c
Encoding settings : cabac=1 / ref=10 / deblock=1:-2:-1 / analyse=0x3:0x133 / me=umh / subme=11 / psy=1 / psy_rd=1.00:0.08 / mixed_ref=1 / me_range=32 / chroma_me=1 / trellis=2 / 8x8dct=1 / cqm=0 / deadzone=21,11 / fast_pskip=0 / chroma_qp_offset=-3 / threads=18 / lookahead_threads=3 / sliced_threads=0 / nr=0 / decimate=1 / interlaced=0 / bluray_compat=0 / constrained_intra=0 / bframes=11 / b_pyramid=2 / b_adapt=2 / b_bias=0 / direct=1 / weightb=1 / open_gop=0 / weightp=2 / keyint=250 / keyint_min=23 / scenecut=40 / intra_refresh=0 / rc=2pass / mbtree=0 / bitrate=1781 / ratetol=1.0 / qcomp=0.60 / qpmin=0 / qpmax=69 / qpstep=4 / cplxblur=20.0 / qblur=0.5 / ip_ratio=1.40 / pb_ratio=1.30 / aq=2:1.00
Default : Yes
Forced : No
Color primaries : BT.709
Transfer characteristics : BT.709
Matrix coefficients : BT.709
Audio
ID : 2
Format : AC-3
Format/Info : Audio Coding 3
Mode extension : CM (complete main)
Format settings, Endianness : Big
Codec ID : A_AC3
Duration : 1h 45mn
Bit rate mode : Constant
Bit rate : 192 Kbps
Channel(s) : 2 channels
Channel positions : Front: L R
Sampling rate : 48.0 KHz
Bit depth : 16 bits
Compression mode : Lossy
Stream size : 145 MiB (10%)
Default : Yes
Forced : No

Скриншоты

[202111.mytorrents.biz].t680922.torrent
 GOLD TORRENT! DOWNLOAD TRAFFIC DOES NOT CONSIDER! 
Осталось: [ 15-Dec-2020 02:13 ]
Torrent: Registered [ 2020-11-15 02:10 ] · 8C9CB76BCA555C8FA8D5D969D2DB988429BF65E8

Download .torrent

Download


Помочь трекеру

Status: checked
Size: 1.46 GB   (Completed: 2 times)
Rate: 
(Vote: 0)
Has thanked: 0  Thanks
Золото/Серебро:

Инструкция
Похожие темы
Display posts:    
Reply to topic

Current time is: 29-Nov 05:57

All times are UTC + 5



You cannot post new topics in this forum
You cannot reply to topics in this forum
You cannot edit your posts in this forum
You cannot delete your posts in this forum
You cannot vote in polls in this forum
You cannot attach files in this forum
You cannot download files in this forum