Скачать Билл и Тед / Bill & Ted Face the Music (Дин Паризо) [2020, Комедия, фантастика, музыка, фэнтези, BDRip-AVC] | iTunes в Тас-икс (Tas-ix)

DL-List and Torrent activity
Size:  1.82 GB   |    Registered:  12 days   |    Completed:  11 times
Seeders:  6  [  0 KB/s  ]   Show peers in full details
   
 
Author Message

tohirali ®

Gender: Male

Longevity: 4 years 1 month

Posts: 758

Репутация: 249 [+]

Наличие запрета:

[Profile] [PM]

Post 12-Nov-2020 22:29

[Quote]

-Билл и Тед / Bill & Ted Face the Music-- Информация о фильме
Название: Билл и Тед
Оригинальное название: Bill & Ted Face the Music
Год выхода: 2020
Жанр: Комедия, фантастика, музыка, фэнтези-Режиссер: Дин Паризо
В ролях: Киану Ривз, Алекс Уинтер, Кристен Шаал, Самара Уивинг, Бригитт Ланди-Пейн, Уильям Сэдлер, Энтони Кэрриган, Эринн Хэйс, Джейма Мейс, Хэл Лэндон мл.
О фильме:
Музыканты-раздолбаи Билл и Тед всю жизнь верили в пророчество, что их рок-н-ролл спасёт вселенную от гибели. И вот, глобальная катастрофа уже на носу, и на спасение мира у парней остается чуть больше часа. И тогда они решают отправиться в будущее, чтобы стырить песню… у самих себя. Вместе с папашами в путешествие отправляются уже взрослые дочери Билла и Теда. Смогут ли папины дочки выдержать напор отцовского креатива?
-
Страна: США, Канада, Италия
Студия: Hammerstone Studios, Dial 9, Dugan Entertainment
Продолжительность: 01:31:55
Перевод: Дублированный | iTunes-Файл
Формат: Matroska
Качество: BDRip-AVC
Видео: AVC/H.264, 1024x426, ~2000 kbps, 0.191 b/px, 23.976 fps
Аудио 1: AC3, 6 ch, 48.0 KHz, 384 kbps - Русский
Аудио 2: AC3, 6 ch, 48.0 KHz, 448 kbps - Английский
Субтитры: Русские (Full), Английские (Full, SDH)
Навигация по главам: Есть

MI

General
Unique ID : 146085214352594294253338712407965400577 (0x6DE6FD26EFFF4C6CC5002050215F7E01)
Complete name : F:\My computer\For upload\,Vremyanka stuffs\Bill and Ted Face the Music 2020 from wolf1245 & MediaBit.mkv
Format : Matroska
Format version : Version 4 / Version 2
File size : 1.82 GiB
Duration : 1h 31mn
Overall bit rate : 2 832 Kbps
Movie name : Bill and Ted Face the Music 2020 from wolf1245 & MediaBit
Encoded date : UTC 2020-09-24 10:27:17
Writing application : mkvmerge v50.0.0 ('Awakenings') 64-bit
Writing library : libebml v1.4.0 + libmatroska v1.6.2
Video
ID : 1
Format : AVC
Format/Info : Advanced Video Codec
Format profile : High@L4.1
Format settings, CABAC : Yes
Format settings, ReFrames : 12 frames
Codec ID : V_MPEG4/ISO/AVC
Duration : 1h 31mn
Bit rate : 1 999 Kbps
Width : 1 024 pixels
Height : 426 pixels
Display aspect ratio : 2.40:1
Frame rate mode : Constant
Frame rate : 23.976 fps
Color space : YUV
Chroma subsampling : 4:2:0
Bit depth : 8 bits
Scan type : Progressive
Bits/(Pixel*Frame) : 0.191
Stream size : 1.25 GiB (69%)
Title : wolf1245 & MediaBit
Writing library : x264 core 157 r2958 57baac4
Encoding settings : cabac=1 / ref=12 / deblock=1:-2:-2 / analyse=0x3:0x133 / me=umh / subme=11 / psy=1 / psy_rd=1.02:0.05 / mixed_ref=1 / me_range=48 / chroma_me=1 / trellis=2 / 8x8dct=1 / cqm=0 / deadzone=21,11 / fast_pskip=0 / chroma_qp_offset=-3 / threads=10 / lookahead_threads=2 / sliced_threads=0 / nr=0 / decimate=0 / interlaced=0 / bluray_compat=0 / constrained_intra=0 / bframes=12 / b_pyramid=2 / b_adapt=2 / b_bias=0 / direct=3 / weightb=1 / open_gop=0 / weightp=2 / keyint=240 / keyint_min=24 / scenecut=40 / intra_refresh=0 / rc_lookahead=60 / rc=2pass / mbtree=0 / bitrate=1999 / ratetol=1.0 / qcomp=0.60 / qpmin=0 / qpmax=69 / qpstep=4 / cplxblur=20.0 / qblur=0.5 / vbv_maxrate=50000 / vbv_bufsize=62500 / nal_hrd=none / filler=0 / ip_ratio=1.40 / pb_ratio=1.30 / aq=2:0.90
Language : English
Default : Yes
Forced : No
DURATION : 01:31:55.761000000
NUMBER_OF_FRAMES : 132246
NUMBER_OF_BYTES : 1377690459
_STATISTICS_WRITING_APP : mkvmerge v50.0.0 ('Awakenings') 64-bit
_STATISTICS_WRITING_DATE_UTC : 2020-09-24 10:27:17
_STATISTICS_TAGS : BPS DURATION NUMBER_OF_FRAMES NUMBER_OF_BYTES
Color primaries : BT.709
Transfer characteristics : BT.709
Matrix coefficients : BT.709
Audio #1
ID : 2
Format : AC-3
Format/Info : Audio Coding 3
Mode extension : CM (complete main)
Format settings, Endianness : Big
Codec ID : A_AC3
Duration : 1h 31mn
Bit rate mode : Constant
Bit rate : 384 Kbps
Channel(s) : 6 channels
Channel positions : Front: L C R, Side: L R, LFE
Sampling rate : 48.0 KHz
Bit depth : 16 bits
Compression mode : Lossy
Stream size : 252 MiB (14%)
Title : DUB | iTunes
Language : Russian
Default : Yes
Forced : No
DURATION : 01:31:43.904000000
NUMBER_OF_FRAMES : 171997
NUMBER_OF_BYTES : 264187392
_STATISTICS_WRITING_APP : mkvmerge v50.0.0 ('Awakenings') 64-bit
_STATISTICS_WRITING_DATE_UTC : 2020-09-24 10:27:17
_STATISTICS_TAGS : BPS DURATION NUMBER_OF_FRAMES NUMBER_OF_BYTES
Audio #2
ID : 3
Format : AC-3
Format/Info : Audio Coding 3
Mode extension : CM (complete main)
Format settings, Endianness : Big
Codec ID : A_AC3
Duration : 1h 31mn
Bit rate mode : Constant
Bit rate : 448 Kbps
Channel(s) : 6 channels
Channel positions : Front: L C R, Side: L R, LFE
Sampling rate : 48.0 KHz
Bit depth : 16 bits
Compression mode : Lossy
Stream size : 295 MiB (16%)
Title : Original
Language : English
Default : No
Forced : No
DURATION : 01:31:55.840000000
NUMBER_OF_FRAMES : 172370
NUMBER_OF_BYTES : 308887040
_STATISTICS_WRITING_APP : mkvmerge v50.0.0 ('Awakenings') 64-bit
_STATISTICS_WRITING_DATE_UTC : 2020-09-24 10:27:17
_STATISTICS_TAGS : BPS DURATION NUMBER_OF_FRAMES NUMBER_OF_BYTES
Text #1
ID : 4
Format : UTF-8
Codec ID : S_TEXT/UTF8
Codec ID/Info : UTF-8 Plain Text
Title : Full
Language : Russian
Default : No
Forced : No
DURATION : 01:31:30.061000000
NUMBER_OF_FRAMES : 1571
NUMBER_OF_BYTES : 72786
_STATISTICS_WRITING_APP : mkvmerge v50.0.0 ('Awakenings') 64-bit
_STATISTICS_WRITING_DATE_UTC : 2020-09-24 10:27:17
_STATISTICS_TAGS : BPS DURATION NUMBER_OF_FRAMES NUMBER_OF_BYTES
Text #2
ID : 5
Format : UTF-8
Codec ID : S_TEXT/UTF8
Codec ID/Info : UTF-8 Plain Text
Title : Full
Language : English
Default : No
Forced : No
DURATION : 01:31:07.897000000
NUMBER_OF_FRAMES : 1583
NUMBER_OF_BYTES : 43152
_STATISTICS_WRITING_APP : mkvmerge v50.0.0 ('Awakenings') 64-bit
_STATISTICS_WRITING_DATE_UTC : 2020-09-24 10:27:17
_STATISTICS_TAGS : BPS DURATION NUMBER_OF_FRAMES NUMBER_OF_BYTES
Text #3
ID : 6
Format : UTF-8
Codec ID : S_TEXT/UTF8
Codec ID/Info : UTF-8 Plain Text
Title : SDH
Language : English
Default : No
Forced : No
DURATION : 01:31:07.897000000
NUMBER_OF_FRAMES : 1733
NUMBER_OF_BYTES : 46535
_STATISTICS_WRITING_APP : mkvmerge v50.0.0 ('Awakenings') 64-bit
_STATISTICS_WRITING_DATE_UTC : 2020-09-24 10:27:17
_STATISTICS_TAGS : BPS DURATION NUMBER_OF_FRAMES NUMBER_OF_BYTES
Menu
00:00:00.000 : :Studio Logo
00:00:33.000 : :Prologue
00:01:56.000 : :Wedding
00:06:32.000 : :Couples' Therapy
00:09:53.000 : :Respecting the situation
00:20:54.000 : :Plagiarizer
00:25:49.000 : :Putting plans in place
00:30:05.000 : :Assembling a band
00:41:57.000 : :More members
00:47:09.000 : :Hell
00:51:42.000 : :Face the music
00:59:05.000 : :The last member
01:10:00.000 : :The prophesy
01:24:15.000 : :End Credits
01:29:38.000 : :One last thing to do

Скриншоты

[202111.mytorrents.biz].t680910.torrent
 GOLD TORRENT! DOWNLOAD TRAFFIC DOES NOT CONSIDER! 
Осталось: [ 12-Dec-2020 22:30 ]
Torrent: Registered [ 2020-11-12 22:29 ] · 70EC03F3FCC12C1418A2B7DFA47639FA8E1E6FD5

Download .torrent

Download


Помочь трекеру

Status: checked
Size: 1.82 GB   (Completed: 11 times)
Rate: 
(Vote: 1)
Has thanked: 2  Thanks   (List)
Золото/Серебро:

Инструкция
Похожие темы
Display posts:    
Reply to topic

Current time is: 25-Nov 22:01

All times are UTC + 5



You cannot post new topics in this forum
You cannot reply to topics in this forum
You cannot edit your posts in this forum
You cannot delete your posts in this forum
You cannot vote in polls in this forum
You cannot attach files in this forum
You cannot download files in this forum