Скачать Невероятные приключения Билла и Теда / Bill & Ted's Excellent Adventure (Стивен Херек) [1989, фантастика, комедия, приключения, BDRip-AVC] в Тас-икс (Tas-ix)

DL-List and Torrent activity
Size:  2.05 GB   |    Registered:  14 days   |    Completed:  4 times

Seeder not seen: 3 days

Leechers:  1  [  0 KB/s  ]   Show peers in full details
 
 
 
 
Author Message

tohirali ®

Gender: Male

Longevity: 4 years 1 month

Posts: 758

Репутация: 249 [+]

Наличие запрета:

[Profile] [PM]

Post 12-Nov-2020 18:09

[Quote]

-Невероятные приключения Билла и Теда

Bill & Ted's Excellent Adventure

--Информация о фильме
Название: Невероятные приключения Билла и Теда
Оригинальное название: Bill & Ted's Excellent Adventure
Год выхода: 1989
Жанр: фантастика, комедия, приключения
Режиссер: Стивен Херек-В ролях: Киану Ривз, Алекс Уинтер, Джордж Карлин, Терри Камиллери, Дэн Шор, Тони Стидман, Род Лумис, Аль Леонг, Джейн Уидлин, Роберт В. Баррон...
О фильме: Калифорнийские школьники Билл и Тед узнают, что им не сдать экзамен по истории, если они не сделают доклад на тему «Современный мир глазами выдающейся исторической личности».
Судьба сводит их с представителем будущего — Руфусом, путешествующим на машине времени в виде телефонной будки. С ее помощью Билл и Тед не только перемещаются в прошлое, но и переносят оттуда множество исторических личностей.-Страна: США
Продолжительность: 01:29:51
Перевод: Профессиональный (многоголосый закадровый), Оригинал (Английский)-Файл
Кодек: x.264
Качество: BDRip-AVC
Видео: 1024x432 (2,40:1), 23.976 fps, 2436 kbps, 0.230 bit/pixel
Аудио #1: 48 kHz, AC3 Dolby Digital, 6 ch, ~448.00 kbps (Русский)
Аудио #2: 48 kHz, AC3 Dolby Digital, 6 ch, ~384.00 kbps (Английский)
Субтитры: Русские, Английские (отключаемые)

MediaInfo

General
Unique ID : 176837475802065937267260007430223198112 (0x8509A8B3CFBC1C65A5FC8D78335677A0)
Complete name : F:\My computer\For upload\,Vremyanka stuffs\Bill & Ted's Excellent Adventure.1989.BDRip-AVC.mkv
Format : Matroska
Format version : Version 4 / Version 2
File size : 2.05 GiB
Duration : 1h 29mn
Overall bit rate : 3 268 Kbps
Movie name : Невероятные приключения Билла и Теда / Bill & Teds Excellent Adventure (1989) BDRip-AVC rip by Rulya74
Encoded date : UTC 2013-11-29 06:20:23
Writing application : mkvmerge v6.5.0 ('Isn't she lovely') built on Oct 20 2013 12:50:05
Writing library : libebml v1.3.0 + libmatroska v1.4.1
Video
ID : 1
Format : AVC
Format/Info : Advanced Video Codec
Format profile : High@L4.1
Format settings, CABAC : Yes
Format settings, ReFrames : 14 frames
Codec ID : V_MPEG4/ISO/AVC
Duration : 1h 29mn
Bit rate : 2 436 Kbps
Width : 1 024 pixels
Height : 432 pixels
Display aspect ratio : 2.40:1
Frame rate mode : Constant
Frame rate : 23.976 fps
Color space : YUV
Chroma subsampling : 4:2:0
Bit depth : 8 bits
Scan type : Progressive
Bits/(Pixel*Frame) : 0.230
Stream size : 1.49 GiB (73%)
Writing library : x264 core 138 r2358 9e941d1
Encoding settings : cabac=1 / ref=14 / deblock=1:-3:-3 / analyse=0x3:0x113 / me=umh / subme=11 / psy=1 / psy_rd=1.00:0.00 / mixed_ref=1 / me_range=48 / chroma_me=1 / trellis=2 / 8x8dct=1 / cqm=0 / deadzone=21,11 / fast_pskip=0 / chroma_qp_offset=-2 / threads=4 / lookahead_threads=1 / sliced_threads=0 / nr=0 / decimate=1 / interlaced=0 / bluray_compat=0 / constrained_intra=0 / bframes=12 / b_pyramid=2 / b_adapt=1 / b_bias=0 / direct=3 / weightb=1 / open_gop=0 / weightp=2 / keyint=240 / keyint_min=22 / scenecut=40 / intra_refresh=0 / rc_lookahead=40 / rc=2pass / mbtree=1 / bitrate=2436 / ratetol=1.0 / qcomp=0.60 / qpmin=10 / qpmax=69 / qpstep=4 / cplxblur=20.0 / qblur=0.5 / vbv_maxrate=62500 / vbv_bufsize=78125 / nal_hrd=none / ip_ratio=1.40 / aq=1:1.00
Default : Yes
Forced : No
Audio #1
ID : 2
Format : AC-3
Format/Info : Audio Coding 3
Mode extension : CM (complete main)
Format settings, Endianness : Big
Codec ID : A_AC3
Duration : 1h 29mn
Bit rate mode : Constant
Bit rate : 448 Kbps
Channel(s) : 6 channels
Channel positions : Front: L C R, Side: L R, LFE
Sampling rate : 48.0 KHz
Bit depth : 16 bits
Compression mode : Lossy
Stream size : 288 MiB (14%)
Title : Профессиональный (многоголосый закадровый)
Language : Russian
Default : Yes
Forced : No
Audio #2
ID : 3
Format : AC-3
Format/Info : Audio Coding 3
Mode extension : CM (complete main)
Format settings, Endianness : Big
Codec ID : A_AC3
Duration : 1h 29mn
Bit rate mode : Constant
Bit rate : 384 Kbps
Channel(s) : 6 channels
Channel positions : Front: L C R, Side: L R, LFE
Sampling rate : 48.0 KHz
Bit depth : 16 bits
Compression mode : Lossy
Stream size : 247 MiB (12%)
Title : Оригинал
Language : English
Default : No
Forced : No
Text #1
ID : 4
Format : UTF-8
Codec ID : S_TEXT/UTF8
Codec ID/Info : UTF-8 Plain Text
Language : Russian
Default : Yes
Forced : No
Text #2
ID : 5
Format : UTF-8
Codec ID : S_TEXT/UTF8
Codec ID/Info : UTF-8 Plain Text
Language : English
Default : No
Forced : No

Скриншоты

[202111.mytorrents.biz].t680909.torrent
 GOLD TORRENT! DOWNLOAD TRAFFIC DOES NOT CONSIDER! 
Осталось: [ 12-Dec-2020 18:10 ]
Torrent: Registered [ 2020-11-12 18:09 ] · 2DCAA77D018ACA6230F9405241FDC7C1169DD342

Download .torrent

Download


Помочь трекеру

Status: checked
Size: 2.05 GB   (Completed: 4 times)
Rate: 
(Vote: 0)
Has thanked: 1  Thanks   (List)
Золото/Серебро:

Инструкция
Похожие темы
Display posts:    
Reply to topic

Current time is: 27-Nov 15:38

All times are UTC + 5



You cannot post new topics in this forum
You cannot reply to topics in this forum
You can edit your posts in this forum
You cannot delete your posts in this forum
You cannot vote in polls in this forum
You cannot attach files in this forum
You cannot download files in this forum