Скачать Девушка грез / I Met a Girl (Люк Ив) [2020, Комедия, драма, WEB-DLRip-AVC] | iTunes в Тас-икс (Tas-ix)

DL-List and Torrent activity
Size:  1.46 GB   |    Registered:  18 days   |    Completed:  4 times
Seeders:  3  [  0 KB/s  ]   Show peers in full details
   
 
Author Message

tohirali ®

Gender: Male

Longevity: 4 years 1 month

Posts: 758

Репутация: 249 [+]

Наличие запрета:

[Profile] [PM]

Post 07-Nov-2020 00:56

[Quote]

-Девушка грез / I Met a Girl-- Информация о фильме:
Название: Девушка грез
Оригинальное название: I Met a Girl
Год выхода: 2020
Жанр: Комедия, драма-Режиссер: Люк Ив
В ролях: Брентон Туэйтс, Лили Салливан, Джоэль Джексон, Зара Ньюман, Анита Хей, Инез Курро, Питер Роустхорн, Лайам Грэхэм, Дэн Пэрис, Анни Финстерер
Описание: Все, что осталось после прошлой ночи, — лишь запах ее духов. Никто ее не видел, никто не знает, где она живет. Никто не верит, что она существует. Как найти девушку грез? Он бросил все и отправился на край света — в город ее мечты. Сидней.-Страна: Австралия
Студия: Monsoon Pictures, Factor 30 Films
Продолжительность: 01:48:11
Перевод: Профессиональный (многоголосый, закадровый) - iTunes
-
Информация о файле:
Кодек: AVC
Формат: MKV
Качество: WEB-DLRip-AVC
Видео: MPEG-4 AVC, 1024x428 (2.40:1), 24.000 fps, 1548 kbps, 0.147
Аудио RU: AC3, 6 ch, 48 kHz, 384 kbps
Субтитры: Английские
Навигация по главам: Нет

MI

General
Unique ID : 104807215987437840863848223814461918792 (0x4ED922B470D24EF8DF643F2C83238E48)
Complete name : F:\My computer\For upload\,Vremyanka stuffs\I Met A Girl 2020 WEB-DLRip-AVC from wolf1245 & MediaBit.mkv
Format : Matroska
Format version : Version 4 / Version 2
File size : 1.46 GiB
Duration : 1h 48mn
Overall bit rate : 1 929 Kbps
Movie name : I Met A Girl 2020 WEB-DLRip-AVC from wolf1245 & MediaBit
Encoded date : UTC 2020-10-18 08:10:16
Writing application : mkvmerge v51.0.0 ('I Wish') 64-bit
Writing library : libebml v1.4.0 + libmatroska v1.6.2
Video
ID : 1
Format : AVC
Format/Info : Advanced Video Codec
Format profile : High@L4.1
Format settings, CABAC : Yes
Format settings, ReFrames : 12 frames
Codec ID : V_MPEG4/ISO/AVC
Duration : 1h 48mn
Bit rate : 1 548 Kbps
Width : 1 024 pixels
Height : 428 pixels
Display aspect ratio : 2.40:1
Frame rate mode : Constant
Frame rate : 24.000 fps
Color space : YUV
Chroma subsampling : 4:2:0
Bit depth : 8 bits
Scan type : Progressive
Bits/(Pixel*Frame) : 0.147
Stream size : 1.14 GiB (78%)
Title : wolf1245 & MediaBit
Writing library : x264 core 157 r2958 57baac4
Encoding settings : cabac=1 / ref=12 / deblock=1:-3:-3 / analyse=0x3:0x133 / me=umh / subme=11 / psy=1 / psy_rd=1.02:0.06 / mixed_ref=1 / me_range=48 / chroma_me=1 / trellis=2 / 8x8dct=1 / cqm=0 / deadzone=21,11 / fast_pskip=0 / chroma_qp_offset=-3 / threads=10 / lookahead_threads=2 / sliced_threads=0 / nr=0 / decimate=0 / interlaced=0 / bluray_compat=0 / constrained_intra=0 / bframes=12 / b_pyramid=2 / b_adapt=2 / b_bias=0 / direct=3 / weightb=1 / open_gop=0 / weightp=2 / keyint=240 / keyint_min=24 / scenecut=40 / intra_refresh=0 / rc_lookahead=60 / rc=2pass / mbtree=0 / bitrate=1548 / ratetol=1.0 / qcomp=0.60 / qpmin=0 / qpmax=69 / qpstep=4 / cplxblur=20.0 / qblur=0.5 / vbv_maxrate=50000 / vbv_bufsize=62500 / nal_hrd=none / filler=0 / ip_ratio=1.40 / pb_ratio=1.30 / aq=2:0.80
Language : English
Default : Yes
Forced : No
DURATION : 01:48:11.792000000
NUMBER_OF_FRAMES : 155803
NUMBER_OF_BYTES : 1252506938
_STATISTICS_WRITING_APP : mkvmerge v51.0.0 ('I Wish') 64-bit
_STATISTICS_WRITING_DATE_UTC : 2020-10-18 08:10:16
_STATISTICS_TAGS : BPS DURATION NUMBER_OF_FRAMES NUMBER_OF_BYTES
Color primaries : BT.709
Transfer characteristics : BT.709
Matrix coefficients : BT.709
Audio
ID : 2
Format : AC-3
Format/Info : Audio Coding 3
Mode extension : CM (complete main)
Format settings, Endianness : Big
Codec ID : A_AC3
Duration : 1h 48mn
Bit rate mode : Constant
Bit rate : 384 Kbps
Channel(s) : 6 channels
Channel positions : Front: L C R, Side: L R, LFE
Sampling rate : 48.0 KHz
Bit depth : 16 bits
Compression mode : Lossy
Stream size : 297 MiB (20%)
Title : MVO | iTunes
Language : Russian
Default : Yes
Forced : No
DURATION : 01:48:12.288000000
NUMBER_OF_FRAMES : 202884
NUMBER_OF_BYTES : 311629824
_STATISTICS_WRITING_APP : mkvmerge v51.0.0 ('I Wish') 64-bit
_STATISTICS_WRITING_DATE_UTC : 2020-10-18 08:10:16
_STATISTICS_TAGS : BPS DURATION NUMBER_OF_FRAMES NUMBER_OF_BYTES
Text #1
ID : 3
Format : UTF-8
Codec ID : S_TEXT/UTF8
Codec ID/Info : UTF-8 Plain Text
Title : Full
Language : English
Default : No
Forced : No
DURATION : 01:47:35.000000000
NUMBER_OF_FRAMES : 1278
NUMBER_OF_BYTES : 45605
_STATISTICS_WRITING_APP : mkvmerge v51.0.0 ('I Wish') 64-bit
_STATISTICS_WRITING_DATE_UTC : 2020-10-18 08:10:16
_STATISTICS_TAGS : BPS DURATION NUMBER_OF_FRAMES NUMBER_OF_BYTES
Text #2
ID : 4
Format : UTF-8
Codec ID : S_TEXT/UTF8
Codec ID/Info : UTF-8 Plain Text
Title : SDH
Language : English
Default : No
Forced : No
DURATION : 01:47:35.000000000
NUMBER_OF_FRAMES : 1503
NUMBER_OF_BYTES : 50207
_STATISTICS_WRITING_APP : mkvmerge v51.0.0 ('I Wish') 64-bit
_STATISTICS_WRITING_DATE_UTC : 2020-10-18 08:10:16
_STATISTICS_TAGS : BPS DURATION NUMBER_OF_FRAMES NUMBER_OF_BYTES

Скриншоты

[202111.mytorrents.biz].t680897.torrent
 GOLD TORRENT! DOWNLOAD TRAFFIC DOES NOT CONSIDER! 
Осталось: [ 07-Dec-2020 00:58 ]
Torrent: Registered [ 2020-11-07 00:56 ] · E078042F0C3AC3A42A759625714B054AE6ACBC00

Download .torrent

Download


Помочь трекеру

Status: checked
Size: 1.46 GB   (Completed: 4 times)
Rate: 
(Vote: 0)
Has thanked: 2  Thanks   (List)
Золото/Серебро:

Инструкция
Похожие темы
Display posts:    
Reply to topic

Current time is: 25-Nov 20:54

All times are UTC + 5



You cannot post new topics in this forum
You cannot reply to topics in this forum
You cannot edit your posts in this forum
You cannot delete your posts in this forum
You cannot vote in polls in this forum
You cannot attach files in this forum
You cannot download files in this forum