Скачать Думай как собака / Think Like a Dog (Джил Джангер) [2020, Фантастика, драма, комедия, семейный, HDRip-AVC] | iTunes в Тас-икс (Tas-ix)

DL-List and Torrent activity
Size:  1.44 GB   |    Registered:  20 days   |    Completed:  6 times
Seeders:  2  [  0 KB/s  ]   Show peers in full details
 
 
 
 
Author Message

tohirali ®

Gender: Male

Longevity: 4 years 1 month

Posts: 758

Репутация: 249 [+]

Наличие запрета:

[Profile] [PM]

Post 07-Nov-2020 00:38

[Quote]

-Думай как собака / Think Like a Dog-- Информация о фильме
Название: Думай как собака
Оригинальное название: Think Like a Dog
Год выхода: 2020
Жанр: Фантастика, драма, комедия, семейный-Режиссер: Джил Джангер
В ролях: Гэбриел Бейтман, Джош Дюамель, Меган Фокс, Мэдисон Хорчер, Минхао Хоу, Исаак Ванг, Диллон Альф, Билли Джонстон, Кунал Найяр, Джанет Монтгомери
Описание: В ходе научного эксперимента 12-летний вундеркинд Оливер устанавливает телепатическую связь с любимым и, как оказалось, очень умным псом Генри. Благодаря подсказкам собаки парню удается решать проблемы в школе, дома и даже с девочками...-Страна: Китай, США, Великобритания
Студия: Arboretum Productions, M Star International, Mad Chance
Продолжительность: 01:30:54
Перевод: Дублированный - iTunes-Информация о файле
Кодек: AVC
Формат: MKV
Качество: HDRip-AVC
Видео: MPEG-4 AVC, 1024x554 (1.85:1), 23.976 fps, 1882 kb/s, 0.138
Аудио RU: AC3, 6 ch, 48 kHz, 384 kbps
Субтитры: Английские
Навигация по главам: Есть

MI

General
Unique ID : 218345335890918166450782906265233610581 (0xA443C83525AA4481011270B5E7355755)
Complete name : F:\My computer\For upload\,Vremyanka stuffs\Think Like a Dog 2020 from wolf1245 & MediaBit.mkv
Format : Matroska
Format version : Version 4 / Version 2
File size : 1.44 GiB
Duration : 1h 30mn
Overall bit rate : 2 266 Kbps
Movie name : Think Like a Dog 2020 from wolf1245 & MediaBit
Encoded date : UTC 2020-10-16 01:25:26
Writing application : mkvmerge v51.0.0 ('I Wish') 64-bit
Writing library : libebml v1.4.0 + libmatroska v1.6.2
DURATION : 01:25:54.817000000
NUMBER_OF_FRAMES : 1597
NUMBER_OF_BYTES : 60566
_STATISTICS_WRITING_APP : mkvmerge v51.0.0 ('I Wish') 64-bit
_STATISTICS_WRITING_DATE_UTC : 2020-10-16 01:25:26
_STATISTICS_TAGS : BPS DURATION NUMBER_OF_FRAMES NUMBER_OF_BYTES
Video
ID : 1
Format : AVC
Format/Info : Advanced Video Codec
Format profile : High@L4.1
Format settings, CABAC : Yes
Format settings, ReFrames : 12 frames
Codec ID : V_MPEG4/ISO/AVC
Duration : 1h 30mn
Bit rate : 1 882 Kbps
Width : 1 024 pixels
Height : 554 pixels
Display aspect ratio : 1.85:1
Frame rate mode : Constant
Frame rate : 23.976 fps
Color space : YUV
Chroma subsampling : 4:2:0
Bit depth : 8 bits
Scan type : Progressive
Bits/(Pixel*Frame) : 0.138
Stream size : 1.17 GiB (81%)
Title : wolf1245 & MediaBit
Writing library : x264 core 157 r2958 57baac4
Encoding settings : cabac=1 / ref=12 / deblock=1:-3:-3 / analyse=0x3:0x133 / me=umh / subme=11 / psy=1 / psy_rd=1.02:0.06 / mixed_ref=1 / me_range=48 / chroma_me=1 / trellis=2 / 8x8dct=1 / cqm=0 / deadzone=21,11 / fast_pskip=0 / chroma_qp_offset=-3 / threads=10 / lookahead_threads=2 / sliced_threads=0 / nr=0 / decimate=0 / interlaced=0 / bluray_compat=0 / constrained_intra=0 / bframes=12 / b_pyramid=2 / b_adapt=2 / b_bias=0 / direct=3 / weightb=1 / open_gop=0 / weightp=2 / keyint=240 / keyint_min=24 / scenecut=40 / intra_refresh=0 / rc_lookahead=60 / rc=2pass / mbtree=0 / bitrate=1882 / ratetol=1.0 / qcomp=0.60 / qpmin=0 / qpmax=69 / qpstep=4 / cplxblur=20.0 / qblur=0.5 / vbv_maxrate=50000 / vbv_bufsize=62500 / nal_hrd=none / filler=0 / ip_ratio=1.40 / pb_ratio=1.30 / aq=2:0.80
Language : English
Default : Yes
Forced : No
DURATION : 01:30:54.449000000
NUMBER_OF_FRAMES : 130776
NUMBER_OF_BYTES : 1281930550
_STATISTICS_WRITING_APP : mkvmerge v51.0.0 ('I Wish') 64-bit
_STATISTICS_WRITING_DATE_UTC : 2020-10-16 01:25:26
_STATISTICS_TAGS : BPS DURATION NUMBER_OF_FRAMES NUMBER_OF_BYTES
Color primaries : BT.709
Transfer characteristics : BT.709
Matrix coefficients : BT.709
Audio
ID : 2
Format : AC-3
Format/Info : Audio Coding 3
Mode extension : CM (complete main)
Format settings, Endianness : Big
Codec ID : A_AC3
Duration : 1h 30mn
Bit rate mode : Constant
Bit rate : 384 Kbps
Channel(s) : 6 channels
Channel positions : Front: L C R, Side: L R, LFE
Sampling rate : 48.0 KHz
Bit depth : 16 bits
Compression mode : Lossy
Stream size : 250 MiB (17%)
Title : DUB | iTunes
Language : Russian
Default : Yes
Forced : No
DURATION : 01:30:54.144000000
NUMBER_OF_FRAMES : 170442
NUMBER_OF_BYTES : 261798912
_STATISTICS_WRITING_APP : mkvmerge v51.0.0 ('I Wish') 64-bit
_STATISTICS_WRITING_DATE_UTC : 2020-10-16 01:25:26
_STATISTICS_TAGS : BPS DURATION NUMBER_OF_FRAMES NUMBER_OF_BYTES
Text #1
ID : 3
Format : UTF-8
Codec ID : S_TEXT/UTF8
Codec ID/Info : UTF-8 Plain Text
Title : Full
Language : English
Default : No
Forced : No
Text #2
ID : 4
Format : UTF-8
Codec ID : S_TEXT/UTF8
Codec ID/Info : UTF-8 Plain Text
Title : SDH
Language : English
Default : No
Forced : No
Menu
00:00:00.000 : :Chapter 01
00:06:29.222 : :Chapter 02
00:11:26.102 : :Chapter 03
00:15:10.493 : :Chapter 04
00:20:36.277 : :Chapter 05
00:24:44.942 : :Chapter 06
00:30:44.259 : :Chapter 07
00:39:13.560 : :Chapter 08
00:45:20.718 : :Chapter 09
00:51:45.602 : :Chapter 10
00:57:39.581 : :Chapter 11
00:59:33.779 : :Chapter 12
01:06:02.458 : :Chapter 13
01:10:47.410 : :Chapter 14
01:13:45.630 : :Chapter 15
01:21:52.741 : :Chapter 16

Скриншоты

[202111.mytorrents.biz].t680896.torrent
 GOLD TORRENT! DOWNLOAD TRAFFIC DOES NOT CONSIDER! 
Осталось: [ 07-Dec-2020 00:41 ]
Torrent: Registered [ 2020-11-07 00:38 ] · 91980E2AA07FF63EF4852667E1BFDB2EA29C7A2B

Download .torrent

Download


Помочь трекеру

Status: checked
Size: 1.44 GB   (Completed: 6 times)
Rate: 
(Vote: 1)
Has thanked: 2  Thanks   (List)
Золото/Серебро:

Инструкция
Похожие темы
Display posts:    
Reply to topic

Current time is: 27-Nov 16:54

All times are UTC + 5



You cannot post new topics in this forum
You cannot reply to topics in this forum
You cannot edit your posts in this forum
You cannot delete your posts in this forum
You cannot vote in polls in this forum
You cannot attach files in this forum
You cannot download files in this forum