Скачать Поезд в Пусан 2: Полуостров / Train to Busan 2 (Сан Хо Ён) [2020, ужасы, триллер, боевик, WEB-DLRip-AVC] | iTunes в Тас-икс (Tas-ix)

DL-List and Torrent activity
Size:  2.39 GB   |    Registered:  25 days   |    Completed:  8 times
Seeders:  3  [  0 KB/s  ]   Show peers in full details
   
 
Author Message

tohirali ®

Gender: Male

Longevity: 4 years 1 month

Posts: 758

Репутация: 249 [+]

Наличие запрета:

[Profile] [PM]

Post 30-Oct-2020 22:14

[Quote]

-Поезд в Пусан 2: Полуостров / Train to Busan 2--Название: Поезд в Пусан 2: Полуостров
Оригинальное название: Train to Busan 2 / Bando
Год выхода: 2020
Жанр: ужасы, триллер, боевик-Режиссер: Сан Хо Ён
В ролях: Дон Вон Кан, Чон Хён Ли, Рэ Ли, Хэ Хё Квон, Мин Чжэ Ким (I), Гё Хван Ку, До Юн Ким, Ё Вон Ли, Гю Бэк Ким, У Чжин Мун, Со Ён Чан, Си Вон Чха, Тхэ Джун Ким, Ён Гён Юн, Мин Сон Ким, Се Джун Пак, Хи Чхоль Син, Дэниэл Джои Олбрайт
О фильме: Через четыре года после вспышки страшного вируса, распространение которого Южная Корея сдержать не смогла, то, что осталось от страны, находится в блокаде, а полчища зомби разгуливают по всему полуострову. Бывший военный в составе спецотряда отправляется в закрытую зону, чтобы отыскать припрятанные деньги, и теперь ему предстоит пробираться по жуткому миру, где помимо означенной угрозы опасность представляют и люди, устраивающие жестокие игры на выживание.-Страна: Корея Южная
Студия: Movic Comics, Next Entertainment World, RedPeter Film
Продолжительность: 01:55:35
Перевод: Дублированный | iTunes-Формат: MKV
Качество: WEB-DL 720p
Видео: MPEG-4 AVC, 1280x536 (2.40:1), 24.000 fps, 2568 Kbps, 0.156 bit/pixel
Аудио : 48 kHz, AC3, 5.1, 384 Kbps | RUS |
Субтитры: Русские

MI

General
Unique ID : 185982010039172172156598977887732293844 (0x8BEAD50CB58DC7A8B05FC4A4BB08E0D4)
Complete name : F:\My computer\For upload\,Vremyanka stuffs\Train.to.Busan.2.2020.WEB-DL.720p.ExKinoRay.mkv
Format : Matroska
Format version : Version 4 / Version 2
File size : 2.39 GiB
Duration : 1h 55mn
Overall bit rate mode : Variable
Overall bit rate : 2 954 Kbps
Movie name : Train to Busan 2 2020 from ExKinoRay
Encoded date : UTC 2020-09-17 01:17:24
Writing application : mkvmerge v7.3.0 ('Nouages') 64bit built on Oct 22 2014 18:53:34
Writing library : libebml v1.3.0 + libmatroska v1.4.1
DURATION : 01:55:35.334000000
NUMBER_OF_FRAMES : 166448
NUMBER_OF_BYTES : 2226527631
_STATISTICS_WRITING_APP : mkvmerge v7.3.0 ('Nouages') 64bit built on Oct 22 2014 18:53:34
_STATISTICS_WRITING_DATE_UTC : 2020-09-17 01:17:24
_STATISTICS_TAGS : BPS DURATION NUMBER_OF_FRAMES NUMBER_OF_BYTES
Video
ID : 1
Format : AVC
Format/Info : Advanced Video Codec
Format profile : High@L4.0
Format settings, CABAC : Yes
Format settings, ReFrames : 4 frames
Codec ID : V_MPEG4/ISO/AVC
Duration : 1h 55mn
Bit rate mode : Variable
Bit rate : 2 511 Kbps
Maximum bit rate : 40.0 Mbps
Width : 1 280 pixels
Height : 536 pixels
Display aspect ratio : 2.40:1
Frame rate mode : Constant
Frame rate : 24.000 fps
Color space : YUV
Chroma subsampling : 4:2:0
Bit depth : 8 bits
Scan type : Progressive
Bits/(Pixel*Frame) : 0.153
Stream size : 2.03 GiB (85%)
Language : English
Default : Yes
Forced : No
Audio
ID : 2
Format : AC-3
Format/Info : Audio Coding 3
Mode extension : CM (complete main)
Format settings, Endianness : Big
Codec ID : A_AC3
Duration : 1h 55mn
Bit rate mode : Constant
Bit rate : 384 Kbps
Channel(s) : 6 channels
Channel positions : Front: L C R, Side: L R, LFE
Sampling rate : 48.0 KHz
Bit depth : 16 bits
Compression mode : Lossy
Stream size : 317 MiB (13%)
Title : Dub [iTunes]
Language : Russian
Default : Yes
Forced : No
Text
ID : 3
Format : UTF-8
Codec ID : S_TEXT/UTF8
Codec ID/Info : UTF-8 Plain Text
Title : Full
Language : Russian
Default : No
Forced : No
Menu
00:00:00.000 : en:Глава 1
00:09:01.041 : en:Глава 2
00:16:25.249 : en:Глава 3
00:23:38.374 : en:Глава 4
00:30:07.624 : en:Глава 5
00:36:27.874 : en:Глава 6
00:41:59.499 : en:Глава 7
00:48:46.082 : en:Глава 8
00:56:14.415 : en:Глава 9
01:03:23.956 : en:Глава 10
01:09:32.164 : en:Глава 11
01:15:52.914 : en:Глава 12
01:23:05.247 : en:Глава 13
01:31:20.080 : en:Глава 14
01:37:15.996 : en:Глава 15
01:44:09.162 : en:Глава 16

Скриншоты

[202111.mytorrents.biz].t680861.torrent
 GOLD TORRENT! DOWNLOAD TRAFFIC DOES NOT CONSIDER! 
Осталось: [ 29-Nov-2020 22:17 ]
Torrent: Registered [ 2020-10-30 22:14 ] · 9336A7E948236D4DA0A4838D25A02421EC953D71

Download .torrent

Download


Помочь трекеру

Status: checked
Size: 2.39 GB   (Completed: 8 times)
Rate: 
(Vote: 1)
Has thanked: 1  Thanks   (List)
Золото/Серебро:

Инструкция
Похожие темы
Display posts:    
Reply to topic

Current time is: 25-Nov 21:59

All times are UTC + 5



You cannot post new topics in this forum
You cannot reply to topics in this forum
You cannot edit your posts in this forum
You cannot delete your posts in this forum
You cannot vote in polls in this forum
You cannot attach files in this forum
You cannot download files in this forum