Скачать Мулан / Mulan (Ники Каро / Niki Caro) [2020, Драма, боевик, фэнтези, WEB-DL 1080p] | HEVC 10bit в Тас-икс (Tas-ix)

DL-List and Torrent activity
Size:  2.13 GB   |    Registered:  2 months 18 days   |    Completed:  34 times
Seeders:  10  [  0 KB/s  ]   Show peers in full details
   
 
Author Message

NuRKHoNoFF ®

Gender: Male

Longevity: 2 years 8 months

Posts: 1053

Location: Каттакурган

Репутация: 226 [+]

Наличие запрета:

[Profile] [PM]

Post 09-Sep-2020 00:58

[Quote]

Мулан / Mulan -Год выпуска: 2020
Страна: США, Канада, Гонконг
Жанр: Драма, боевик, фэнтези
Продолжительность: 01:55:08
Перевод: Профессиональный (многоголосый, закадровый) [IdeaFilm]-Субтитры: Английские-Режиссер: Ники Каро / Niki Caro-В ролях: Ифэй Лю, Донни Йен, Гун Ли, Джет Ли, Джейсон Скотт Ли, Йосон Ань, Ци Ма, Розалинд Чао, Чжэн Пэйпэй, Сюзанна Тан-Описание: Дочь Чинь похищена. Чтобы вернуть ее целой и невредимой, Чинь должна выполнить несколько опасных миссий, ради которых она собирает отряд наемников. С одним из них, таинственным человеком по имени Куан, у Чинь завязываются близкие отношения. Но чем ближе заветная для Чинь цель, тем более запутанными становятся их отношения с Куаном — она понимает, что Куан не так прост, как кажется на первый взгляд, и что в этой истории у него есть свой собственный интерес.
- -Качество: WEB-DL 1080p HEVC 10bit
Формат: MKV
Видео: HEVC, 1998 Kb/s, 1920x808
Аудио №1: АС3, 6 ch, 448 Кбит/с | RUS
Аудио №2: AAC, 6 ch, 201 Кбит/с | ENG-

MediaInfo

General
Unique ID : 86411262515893065969831667062177467801 (0x4102342C5030E7D731A643A8599F0D99)
Complete name : Mulan.2020.WEB-DL.1080p.10bit.6CH.x265.HEVC.ELEKTRI4KA.UNIONGANG.mkv
Format : Matroska
Format version : Version 4
File size : 2.13 GiB
Duration : 1 h 55 min
Overall bit rate : 2 650 kb/s
Movie name : Mulan.2020.WEB-DL.1080p.10bit.6CH.x265.HEVC.ELEKTRI4KA.UNIONGANG
Encoded date : UTC 2020-09-08 18:45:32
Writing application : mkvmerge v45.0.0 ('Heaven in Pennies') 64-bit
Writing library : libebml v1.3.10 + libmatroska v1.5.2
Video
ID : 1
Format : HEVC
Format/Info : High Efficiency Video Coding
Format profile : Main 10@L4@Main
Codec ID : V_MPEGH/ISO/HEVC
Duration : 1 h 55 min
Bit rate : 1 998 kb/s
Width : 1 920 pixels
Height : 808 pixels
Display aspect ratio : 2.40:1
Frame rate mode : Constant
Frame rate : 23.976 (24000/1001) FPS
Color space : YUV
Chroma subsampling : 4:2:0
Bit depth : 10 bits
Bits/(Pixel*Frame) : 0.054
Stream size : 1.61 GiB (75%)
Title : ELEKTRI4KA.UNIONGANG
Default : Yes
Forced : No
Color range : Limited
Color primaries : BT.709
Transfer characteristics : BT.709
Matrix coefficients : BT.709
Audio #1
ID : 2
Format : AC-3
Format/Info : Audio Coding 3
Commercial name : Dolby Digital
Codec ID : A_AC3
Duration : 1 h 55 min
Bit rate mode : Constant
Bit rate : 448 kb/s
Channel(s) : 6 channels
Channel layout : L R C LFE Ls Rs
Sampling rate : 48.0 kHz
Frame rate : 31.250 FPS (1536 SPF)
Compression mode : Lossy
Stream size : 369 MiB (17%)
Title : IdeaFilm ELEKTRI4KA.UNIONGANG
Language : Russian
Service kind : Complete Main
Default : Yes
Forced : Yes
Audio #2
ID : 3
Format : AAC LC SBR
Format/Info : Advanced Audio Codec Low Complexity with Spectral Band Replication
Commercial name : HE-AAC
Format settings : Explicit
Codec ID : A_AAC-2
Duration : 1 h 55 min
Bit rate : 201 kb/s
Channel(s) : 6 channels
Channel layout : C L R Ls Rs LFE
Sampling rate : 48.0 kHz
Frame rate : 23.438 FPS (2048 SPF)
Compression mode : Lossy
Delay relative to video : 23 ms
Stream size : 166 MiB (8%)
Title : ELEKTRI4KA.UNIONGANG
Language : English
Default : No
Forced : No
Text
ID : 4
Format : UTF-8
Codec ID : S_TEXT/UTF8
Codec ID/Info : UTF-8 Plain Text
Duration : 1 h 50 min
Bit rate : 35 b/s
Count of elements : 1150
Stream size : 28.5 KiB (0%)
Title : English
Language : English
Default : Yes
Forced : No
[202111.mytorrents.biz].t680849.torrent
Torrent: Registered [ 2020-09-09 00:58 ] · 29933D83CA45644570748C1753D6561DD24079C9

Download .torrent

Download


Помочь трекеру

Status: checked
Size: 2.13 GB   (Completed: 34 times)
Rate: 
(Vote: 2)
Has thanked: 1  Thanks   (List)
Золото/Серебро:

Инструкция
Похожие темы
Display posts:    
Reply to topic

Current time is: 27-Nov 17:01

All times are UTC + 5



You cannot post new topics in this forum
You cannot reply to topics in this forum
You cannot edit your posts in this forum
You cannot delete your posts in this forum
You cannot vote in polls in this forum
You cannot attach files in this forum
You cannot download files in this forum