Скачать Мулан / Mulan (Ники Каро / Niki Caro) [2020, Драма, боевик, фэнтези, WEB-DL 2160p] | HDR HEVC 10bit в Тас-икс (Tas-ix)

DL-List and Torrent activity
Size:  4.63 GB   |    Registered:  2 months 18 days   |    Completed:  30 times
Seeders:  5  [  0.1 KB/s  ]   Show peers in full details
   
 
Author Message

NuRKHoNoFF ®

Gender: Male

Longevity: 2 years 8 months

Posts: 1053

Location: Каттакурган

Репутация: 226 [+]

Наличие запрета:

[Profile] [PM]

Post 09-Sep-2020 00:57

[Quote]

Мулан / Mulan -Год выпуска: 2020
Страна: США, Канада, Гонконг
Жанр: Драма, боевик, фэнтези
Продолжительность: 01:55:08
Перевод: Профессиональный (многоголосый, закадровый) [IdeaFilm]-Субтитры: Английские-Режиссер: Ники Каро / Niki Caro-В ролях: Ифэй Лю, Донни Йен, Гун Ли, Джет Ли, Джейсон Скотт Ли, Йосон Ань, Ци Ма, Розалинд Чао, Чжэн Пэйпэй, Сюзанна Тан-Описание: Дочь Чинь похищена. Чтобы вернуть ее целой и невредимой, Чинь должна выполнить несколько опасных миссий, ради которых она собирает отряд наемников. С одним из них, таинственным человеком по имени Куан, у Чинь завязываются близкие отношения. Но чем ближе заветная для Чинь цель, тем более запутанными становятся их отношения с Куаном — она понимает, что Куан не так прост, как кажется на первый взгляд, и что в этой истории у него есть свой собственный интерес.
- -Качество: WEB-DL 2160p HDR HEVC 10bit
Формат: MKV
Видео: HEVC, 4541 Kb/s, 3840x2160
Аудио №1: АС3, 6 ch, 448 Кбит/с | RUS
Аудио №2: E-AC3, 6 ch, 768 Кбит/с | ENG-

MediaInfo

General
Unique ID : 177795878908627061528719966049716219463 (0x85C23D9FAFD210FC4A527D8BC10D2E47)
Complete name : Mulan.2020.WEB-DL.2160p.HDR10Plus.x265.HEVC.ELEKTRI4KA.UNIONGANG.mkv
Format : Matroska
Format version : Version 4
File size : 4.63 GiB
Duration : 1 h 55 min
Overall bit rate : 5 759 kb/s
Movie name : Mulan.2020.WEB-DL.2160p.HDR10Plus.x265.HEVC.ELEKTRI4KA.UNIONGANG
Encoded date : UTC 2020-09-08 18:29:08
Writing application : mkvmerge v45.0.0 ('Heaven in Pennies') 64-bit
Writing library : libebml v1.3.10 + libmatroska v1.5.2
Video
ID : 1
Format : HEVC
Format/Info : High Efficiency Video Coding
Format profile : Main 10@L5@Main
HDR format : SMPTE ST 2094 App 4, Version 1, HDR10+ Profile A compatible
Codec ID : V_MPEGH/ISO/HEVC
Duration : 1 h 55 min
Bit rate : 4 541 kb/s
Width : 3 840 pixels
Height : 2 160 pixels
Display aspect ratio : 16:9
Frame rate mode : Constant
Frame rate : 23.976 (24000/1001) FPS
Color space : YUV
Chroma subsampling : 4:2:0
Bit depth : 10 bits
Bits/(Pixel*Frame) : 0.023
Stream size : 3.65 GiB (79%)
Title : ELEKTRI4KA.UNIONGANG
Language : English
Default : Yes
Forced : No
Color range : Full
Color primaries : BT.2020
Transfer characteristics : PQ
Matrix coefficients : BT.2020 non-constant
Audio #1
ID : 2
Format : AC-3
Format/Info : Audio Coding 3
Commercial name : Dolby Digital
Codec ID : A_AC3
Duration : 1 h 55 min
Bit rate mode : Constant
Bit rate : 448 kb/s
Channel(s) : 6 channels
Channel layout : L R C LFE Ls Rs
Sampling rate : 48.0 kHz
Frame rate : 31.250 FPS (1536 SPF)
Compression mode : Lossy
Stream size : 369 MiB (8%)
Title : IdeaFilm ELEKTRI4KA.UNIONGANG
Language : Russian
Service kind : Complete Main
Default : Yes
Forced : Yes
Audio #2
ID : 3
Format : E-AC-3 JOC
Format/Info : Enhanced AC-3 with Joint Object Coding
Commercial name : Dolby Digital Plus with Dolby Atmos
Codec ID : A_EAC3
Duration : 1 h 55 min
Bit rate mode : Constant
Bit rate : 768 kb/s
Channel(s) : 6 channels
Channel layout : L R C LFE Ls Rs
Sampling rate : 48.0 kHz
Frame rate : 31.250 FPS (1536 SPF)
Compression mode : Lossy
Stream size : 633 MiB (13%)
Title : ELEKTRI4KA.UNIONGANG
Language : English
Service kind : Complete Main
Default : No
Forced : No
Complexity index : 16
Number of dynamic objects : 15
Bed channel count : 1 channel
Bed channel configuration : LFE
Text
ID : 4
Format : UTF-8
Codec ID : S_TEXT/UTF8
Codec ID/Info : UTF-8 Plain Text
Duration : 1 h 50 min
Bit rate : 32 b/s
Count of elements : 926
Stream size : 26.1 KiB (0%)
Language : English
Default : No
Forced : No
[202111.mytorrents.biz].t680848.torrent
Torrent: Registered [ 2020-09-09 00:57 ] · 07AEC97CDAEC301779F885F59DE74238DC2EF1DC

Download .torrent

Download


Помочь трекеру

Status: checked
Size: 4.63 GB   (Completed: 30 times)
Rate: 
(Vote: 1)
Has thanked: 4  Thanks   (List)
Золото/Серебро:

Инструкция
Похожие темы
Display posts:    
Reply to topic

Current time is: 27-Nov 16:34

All times are UTC + 5



You cannot post new topics in this forum
You cannot reply to topics in this forum
You cannot edit your posts in this forum
You cannot delete your posts in this forum
You cannot vote in polls in this forum
You cannot attach files in this forum
You cannot download files in this forum