Скачать Таинственный сад / The Secret Garden (Марк Манден) [2020, Фэнтези, приключения, семейный, экранизация, WEB-DL 2160p] в Тас-икс (Tas-ix)

DL-List and Torrent activity
Size:  10.93 GB   |    Registered:  2 months 28 days   |    Completed:  0 times

Seeder not seen: 2 months 15 days

 
 
 
 
Author Message

StSat ®

Gender: Male

Longevity: 8 years 9 months

Posts: 688

Location: Ташкент

Репутация: 1072 [+]

Наличие запрета:

[Profile] [PM]

Post 01-Sep-2020 17:25

[Quote]

Таинственный сад / The Secret Garden
Год выпуска: 2020
Страна: Великобритания, Франция, США, Китай
Жанр: Фэнтези, приключения, семейный, экранизация
Продолжительность: 01:39:42
Перевод: Дублированный
Режиссер: Марк Манден
В ролях: Дикси Эгерикс, Колин Фёрт, Джули Уолтерс, Эдан Хэйхёрст, Амир Уилсон, Айзис Дэвис, Мейв Дермоди, Соня Госвами, Пол Дин-Келли, Энн Лэйси, Руперт Янг, Джемма Пауэлл, Альберт Джаннителли, Абдул Хаким Джой
Описание: Внезапно осиротевшая девочка Мэри вынуждена переехать в окутанный тайнами особняк своего дяди в Англии. Правилами строго запрещено выходить из своей комнаты и бродить по коридорам огромного дома, но однажды Мэри обнаруживает потайную дверь, ведущую в удивительный мир, где исполняются любые желания – таинственный сад.
Качество: WEB-DL 2160p
Формат: MKV
Видео: HEVC, 14.9 Mбит/с, 3840x2160
Аудио#1: AC-3; 384 kb/s; 6 channels; 48.0 kHz (Rus)
Аудио#2: AC-3; 384 kb/s; 6 channels; 48.0 kHz (Eng)
Субтитры#1: Русcкие (Полные, отключаемые)
Субтитры#2: Английские (Полные, отключаемые)

MediaInfo

Format : Matroska
Format version : Version 4
File size : 10.9 GiB
Duration : 1 h 39 min
Overall bit rate : 15.7 Mb/s
Movie name : The Secret Garden.2020 from селезень
Encoded date : UTC 2020-08-31 21:40:12
Writing application : mkvmerge v40.0.0 ('Old Town Road + Pony') 64-bit
Writing library : libebml v1.3.9 + libmatroska v1.5.2
Video
ID : 1
Format : HEVC
Format/Info : High Efficiency Video Coding
Format profile : Main 10@L5@Main
Codec ID : V_MPEGH/ISO/HEVC
Duration : 1 h 39 min
Bit rate : 14.9 Mb/s
Width : 3 840 pixels
Height : 2 160 pixels
Display aspect ratio : 16:9
Frame rate mode : Constant
Frame rate : 23.976 (24000/1001) FPS
Color space : YUV
Chroma subsampling : 4:2:0 (Type 2)
Bit depth : 10 bits
Bits/(Pixel*Frame) : 0.075
Stream size : 10.4 GiB (95%)
Language : English
Default : Yes
Forced : No
Color range : Limited
Color primaries : BT.2020
Transfer characteristics : PQ
Matrix coefficients : BT.2020 non-constant
Maximum Content Light Level : 1028 cd/m2
Maximum Frame-Average Light Le : 338 cd/m2
Audio #1
ID : 2
Format : AC-3
Format/Info : Audio Coding 3
Commercial name : Dolby Digital
Codec ID : A_AC3
Duration : 1 h 39 min
Bit rate mode : Constant
Bit rate : 384 kb/s
Channel(s) : 6 channels
Channel layout : L R C LFE Ls Rs
Sampling rate : 48.0 kHz
Frame rate : 31.250 FPS (1536 SPF)
Compression mode : Lossy
Stream size : 274 MiB (2%)
Title : iTunes
Language : Russian
Service kind : Complete Main
Default : Yes
Forced : Yes
Audio #2
ID : 3
Format : AC-3
Format/Info : Audio Coding 3
Commercial name : Dolby Digital
Codec ID : A_AC3
Duration : 1 h 39 min
Bit rate mode : Constant
Bit rate : 384 kb/s
Channel(s) : 6 channels
Channel layout : L R C LFE Ls Rs
Sampling rate : 48.0 kHz
Frame rate : 31.250 FPS (1536 SPF)
Compression mode : Lossy
Stream size : 274 MiB (2%)
Title : Original
Language : English
Service kind : Complete Main
Default : No
Forced : No
Text #1
ID : 4
Format : UTF-8
Codec ID : S_TEXT/UTF8
Codec ID/Info : UTF-8 Plain Text
Duration : 1 h 33 min
Bit rate : 59 b/s
Count of elements : 898
Stream size : 40.7 KiB (0%)
Title : Full
Language : Russian
Default : No
Forced : No
Text #2
ID : 5
Format : UTF-8
Codec ID : S_TEXT/UTF8
Codec ID/Info : UTF-8 Plain Text
Duration : 1 h 32 min
Bit rate : 43 b/s
Count of elements : 1040
Stream size : 29.6 KiB (0%)
Title : SDH
Language : English
Default : No
Forced : No

Скриншоты

[202111.mytorrents.biz].t680804.torrent
Torrent: Registered [ 2020-09-01 17:25 ] · F3CE47F80F7568E0CF902564BA7EDFFCC7C3ACA1

Download .torrent

Download


Помочь трекеру

Status: checked
Size: 10.93 GB   (Completed: 0 times)
Rate: 
(Vote: 2)
Has thanked: 2  Thanks   (List)
Золото/Серебро:

Инструкция
Похожие темы

Post 03-Sep-2020 01:00 (after 1 day 7 hours)

Топик был перенесен из форума Зарубежные Кинофильмы за 2020 в форум Зарубежные Кинофильмы HEVC
tomas
Display posts:    
Reply to topic

Current time is: 30-Nov 03:57

All times are UTC + 5



You cannot post new topics in this forum
You cannot reply to topics in this forum
You cannot edit your posts in this forum
You cannot delete your posts in this forum
You cannot vote in polls in this forum
You cannot attach files in this forum
You cannot download files in this forum