Скачать Ольга / Сезон: 4 / Серии: 1-8 из ? (Артём Лемперт, Павел Орешин) [2020, Комедия, WEB-DL 1080p] в Тас-икс (Tas-ix)

DL-List and Torrent activity
Size:  5.77 GB   |    Registered:  2 months 23 days   |    Completed:  0 times

Seeder not seen: 2 months 18 days

 
 
 
 
Author Message

StSat ®

Gender: Male

Longevity: 8 years 9 months

Posts: 689

Location: Ташкент

Репутация: 1072 [+]

Наличие запрета:

[Profile] [PM]

Post 01-Sep-2020 14:14

[Quote]

Ольга
Год выпуска: 2020
Страна: Россия
Жанр: Комедия
Продолжительность: ~00:25:00
Перевод: Не требуется
Cубтитры: нет
Режиссер: Артём Лемперт, Павел Орешин
В ролях: Яна Троянова, Ксения Суркова, Мухаммед Абу-Ризик, Алина Алексеева (II), Василий Кортуков, Максим Костромыкин, Тимофей Зайцев, Роза Хайруллина, Гоша Куценко, Анастасия Матвеева, Павел Майков, Юрий Борисов (II)
Описание: Семейство Терентьевых начинает безудержно спасать окружающих, чего бы им и спасаемым это ни стоило. Сестра Ленка вызволяет молодого отца своего ребенка Пушкина из армейской части и готовится к свадьбе, дочь Аня помогает странному Льву научиться заботиться не только об окружающих, но и о ней с их ребенком, сын Тимофей спасает соседку Сашу от неблагополучного отца, бухарика Жоры, параллельно сам впутываясь все глубже в криминальные истории. Даже Юрген хочет помочь жене, которая уже умерла. Ольга дистанцируется от семьи, и та оказывается на грани катастрофы. Как описывает ситуацию неудавшийся жених Ольги Гриша: «Аня жениха выгнала, Тимофей со шпаной связался, дядя Юра вообще цементом могилы заливает... а ей фиолетово!». Только возвращение матери-героини может спасти семью… Но захочет ли Ольга в очередной раз быть самой сильной и решать за всех?
Качество видео: WEB-DL 1080p
Формат видео: MKV
Видео: MPEG-4 AVC, ~ 4500 Кбит/с, 1920x1072
Аудио: AC-3; 192 Kb/s; 2 chanels; 48.0 kHz (Rus)
09.09 ДОБАВЛЕНЫ 6-8 СЕРИИ

MediaInfo (1 серия)

Format : Matroska
Format version : Version 4
File size : 776 MiB
Duration : 23 min 20 s
Overall bit rate mode : Variable
Overall bit rate : 4 650 kb/s
Encoded date : UTC 2020-08-31 17:33:15
Writing application : mkvmerge v7.8.0 ('River Man') 32bit built on Mar 27 2015 16:18:02
Writing library : libebml v1.3.1 + libmatroska v1.4.2
Video
ID : 1
Format : AVC
Format/Info : Advanced Video Codec
Format profile : High@L4
Format settings : CABAC / 1 Ref Frames
Format settings, CABAC : Yes
Format settings, Reference fra : 1 frame
Format settings, GOP : M=1, N=50
Codec ID : V_MPEG4/ISO/AVC
Duration : 23 min 20 s
Bit rate mode : Variable
Bit rate : 4 500 kb/s
Width : 1 920 pixels
Height : 1 072 pixels
Display aspect ratio : 16:9
Frame rate mode : Constant
Frame rate : 25.000 FPS
Color space : YUV
Chroma subsampling : 4:2:0
Bit depth : 8 bits
Scan type : Progressive
Bits/(Pixel*Frame) : 0.087
Stream size : 744 MiB (96%)
Default : Yes
Forced : No
Audio
ID : 2
Format : AC-3
Format/Info : Audio Coding 3
Commercial name : Dolby Digital
Codec ID : A_AC3
Duration : 23 min 20 s
Bit rate mode : Constant
Bit rate : 192 kb/s
Channel(s) : 2 channels
Channel layout : L R
Sampling rate : 48.0 kHz
Frame rate : 31.250 FPS (1536 SPF)
Compression mode : Lossy
Stream size : 32.1 MiB (4%)
Service kind : Complete Main
Default : Yes
Forced : No

Скриншоты

[202111.mytorrents.biz].t680801.torrent
Torrent: Registered [ 2020-09-09 23:43 ] · 2CD7FC9688BFA366F9E2647206CD2667172A2841

Download .torrent

Download


Помочь трекеру

Status: T temporary
Size: 5.77 GB   (Completed: 0 times)
Rate: 
(Vote: 3)
Has thanked: 4  Thanks   (List)
Золото/Серебро:

Инструкция
Похожие темы


Last edited by StSat on 2020-09-09 23:43; edited 1 time in total

StSat ®

Gender: Male

Longevity: 8 years 9 months

Posts: 689

Location: Ташкент

Репутация: 1072 [+]

Наличие запрета:

[Profile] [PM]

Post 04-Sep-2020 22:32 (after 3 days)

[Quote]

если не идет скачивание попробуйте отключить ipfilter
Display posts:    
Reply to topic

Current time is: 03-Dec 01:08

All times are UTC + 5



You cannot post new topics in this forum
You cannot reply to topics in this forum
You cannot edit your posts in this forum
You cannot delete your posts in this forum
You cannot vote in polls in this forum
You cannot attach files in this forum
You cannot download files in this forum