Скачать Макс Уинслоу и дом тайн / Max Winslow and the House of Secrets (Шон Олсон / Sean Olson) [2019, фантастика, триллер, WEB-DL 1080p] (MVO : Синема УС) (Sub Eng + Original Eng) в Тас-икс (Tas-ix)

DL-List and Torrent activity
Size:  4.06 GB   |    Registered:  3 months 5 days   |    Completed:  4 times

Seeder not seen: 1 day 6 hours

 
 
 
 
Author Message

tomas ®

Gender: Male

Longevity: 6 years 10 months

Posts: 1716

Репутация: 183 [+]

Наличие запрета:

[Profile] [PM]

Post 31-Aug-2020 18:41

[Quote]

Макс Уинслоу и дом тайн / Max Winslow and the House of Secrets- Год выпуска: 2019
Страна: США
Жанр: фантастика, триллер
Продолжительность: 01:37:45
Реклама: Нет-Перевод: Любительский (многоголосый закадровый) Синема УС
Оригинальная аудиодорожка: Английская
Cубтитры: Английские полные - отключаемые-Режиссер: Шон Олсон / Sean Olson
Сценарий: Джефф Вайлд
Продюсер: Robert Babcock, Джейсон Брандт, Joe Donaldson, ...
Оператор: Исаак Алонги
Композитор: Джейсон Брандт
Художник: Тейлор Жан
Монтаж: Шон Олсон-В ролях: Чад Майкл Мюррэй, Тэннер Бьюкэнэн, Марина Сиртис, Джейсон Дженао, Джейд Чайновет, Тайлер Кристофер, Эмери Келли, Сидни Микелле, Кристофер Майкл, Антон Старкман и др-Описание: Несколько старшеклассников узнают о том, что влиятельный миллиардер, сумевший сколотить свое состояние за довольно короткий срок, разыгрывает свой роскошный особняк, оснащенный по последнему слову техники. Они решают побороться за столь шикарный приз и готовы ко всем сложностям и испытаниям. Вот только никто из них и предположить не мог, что окажется в самой настоящей ловушке, выход из которой практически невозможно найти. Западню для героев устроил суперкомпьютер, который решил поиграть в Бога.-Качество видео: WEB-DL 1080p
Формат видео: MKV
Видео: AVC; 5 042 kb/s; 1 920x816; 23.976 FPS
Аудио: AC-3; 256 kb/s; 2 channels; 48.0 kHz (Rus)
Аудио: AC-3; 640 kb/s; 6 channels; 48.0 kHz (Eng)-

MediaInfo

General
Format : Matroska
Format version : Version 4
File size : 4.06 GiB
Duration : 1 h 37 min
Overall bit rate : 5 940 kb/s
Movie name : Макс Уинслоу и дом тайн / Max Winslow and the House of Secrets (2019)
Encoded date : UTC 2020-08-28 12:08:27
Writing application : mkvmerge v25.0.0 ('Prog Noir') 64-bit
Writing library : libebml v1.3.6 + libmatroska v1.4.9
Video
ID : 1
Format : AVC
Format/Info : Advanced Video Codec
Format profile : High@L4
Format settings : CABAC / 4 Ref Frames
Format settings, CABAC : Yes
Format settings, Reference fra : 4 frames
Codec ID : V_MPEG4/ISO/AVC
Duration : 1 h 37 min
Bit rate mode : Constant
Bit rate : 5 042 kb/s
Nominal bit rate : 10 000 kb/s
Width : 1 920 pixels
Height : 816 pixels
Display aspect ratio : 2.35:1
Frame rate mode : Constant
Frame rate : 23.976 (24000/1001) FPS
Color space : YUV
Chroma subsampling : 4:2:0
Bit depth : 8 bits
Scan type : Progressive
Bits/(Pixel*Frame) : 0.134
Stream size : 3.44 GiB (85%)
Title : NTG
Language : English
Default : Yes
Forced : No
Color range : Limited
Color primaries : BT.709
Transfer characteristics : BT.709
Matrix coefficients : BT.709
Audio #1
ID : 2
Format : AC-3
Format/Info : Audio Coding 3
Commercial name : Dolby Digital
Codec ID : A_AC3
Duration : 1 h 37 min
Bit rate mode : Constant
Bit rate : 256 kb/s
Channel(s) : 2 channels
Channel layout : L R
Sampling rate : 48.0 kHz
Frame rate : 31.250 FPS (1536 SPF)
Compression mode : Lossy
Stream size : 179 MiB (4%)
Title : MVO [Синема УС] MediaBit
Language : Russian
Service kind : Complete Main
Default : Yes
Forced : No
Audio #2
ID : 3
Format : AC-3
Format/Info : Audio Coding 3
Commercial name : Dolby Digital
Codec ID : A_AC3
Duration : 1 h 37 min
Bit rate mode : Constant
Bit rate : 640 kb/s
Channel(s) : 6 channels
Channel layout : L R C LFE Ls Rs
Sampling rate : 48.0 kHz
Frame rate : 31.250 FPS (1536 SPF)
Compression mode : Lossy
Stream size : 448 MiB (11%)
Title : Original
Language : English
Service kind : Complete Main
Default : No
Forced : No
Text
ID : 4
Format : UTF-8
Codec ID : S_TEXT/UTF8
Codec ID/Info : UTF-8 Plain Text
Duration : 1 h 37 min
Bit rate : 57 b/s
Count of elements : 1468
Stream size : 41.0 KiB (0%)
Language : English
Default : No
Forced : No

Скриншоты

[202111.mytorrents.biz].t680797.torrent
Torrent: Registered [ 2020-08-31 18:41 ] · BFD87F23DFB7BC903060B42702A81661B0309DC1

Download .torrent

Download


Помочь трекеру

Status: checked
Size: 4.06 GB   (Completed: 4 times)
Rate: 
(Vote: 1)
Has thanked: 1  Thanks   (List)
Золото/Серебро:

Инструкция
Похожие темы
Display posts:    
Reply to topic

Current time is: 06-Dec 05:25

All times are UTC + 5



You cannot post new topics in this forum
You cannot reply to topics in this forum
You cannot edit your posts in this forum
You cannot delete your posts in this forum
You cannot vote in polls in this forum
You cannot attach files in this forum
You cannot download files in this forum