Скачать Солнце / Solis (Carl Strathie) [2018, катастрофа, фантастика, триллер, драма, BDRip] (MVO : iTunes) в Тас-икс (Tas-ix)

DL-List and Torrent activity
Size:  1.46 GB   |    Registered:  2 months 26 days   |    Completed:  5 times

Seeder not seen: 2 days 12 hours

 
 
 
 
Author Message

tomas ®

Gender: Male

Longevity: 6 years 10 months

Posts: 1716

Репутация: 183 [+]

Наличие запрета:

[Profile] [PM]

Post 31-Aug-2020 14:04

[Quote]

Солнце / Solis- Год выпуска: 2018
Страна: Великобритания
Жанр: катастрофа, фантастика, триллер, драма
Слоган: «Миссия: выжить»
Продолжительность: 01:31:52-Перевод: Профессиональный (многоголосый закадровый) iTunes
Cубтитры: нет-Режиссер: Carl Strathie
Сценарий: Carl Strathie
Продюсер: Шарлетт Килби, Алан Лэтэм, Carl Strathie, ...
Оператор: Бартломей Сенкевич
Композитор: Дэвид Стоун Хэмилтон
Художник: Тони Ноубл, Charles De La Mare, Frances Collier
Монтаж: Chris Timson-В ролях: Стивен Огг, Элис Лоу, Сид Феникс, Генри Даутуэйт, Кейт Куган, Шарлетт Килби, Jonathan Calloway-Описание: Очнувшись, Трой Холлоуэй осознает, что находится в шаттле, направляющемся в сторону Солнца. Командир Робертс вместе с командой уже мчится ему на помощь, однако Холлоуэй после недавней потери сына не особо жаждет спасения. Тем не менее командир не позволяет ему спокойно ждать смерти и всячески поддерживает его с помощью слабой радиосвязи, полный решимости вытащить Троя из этого ада.-Качество видео: BDRip
Формат видео: AVI
Видео: XviD; 720x304; 1 882 kb/s; 24.000 FPS
Аудио: AC-3; 384 kb/s; 6 channels; 48.0 kHz-

MediaInfo

Format : AVI
Format/Info : Audio Video Interleave
File size : 1.46 GiB
Duration : 1 h 31 min
Overall bit rate : 2 275 kb/s
Writing application : VirtualDubMod 1.5.10.3 | www.virtualdub-fr.org || (build 2550/release)
Writing library : VirtualDubMod build 2550/release
Video
ID : 0
Format : MPEG-4 Visual
Format profile : Advanced Simple@L5
Format settings : BVOP1 / Custom Matrix
Format settings, BVOP : 1
Format settings, QPel : No
Format settings, GMC : No warppoints
Format settings, Matrix : Custom
Codec ID : XVID
Codec ID/Hint : XviD
Duration : 1 h 31 min
Bit rate : 1 882 kb/s
Width : 720 pixels
Height : 304 pixels
Display aspect ratio : 2.35:1
Frame rate : 24.000 FPS
Color space : YUV
Chroma subsampling : 4:2:0
Bit depth : 8 bits
Scan type : Progressive
Compression mode : Lossy
Bits/(Pixel*Frame) : 0.358
Stream size : 1.21 GiB (83%)
Writing library : XviD 69
Audio
ID : 1
Format : AC-3
Format/Info : Audio Coding 3
Commercial name : Dolby Digital
Codec ID : 2000
Duration : 1 h 31 min
Bit rate mode : Constant
Bit rate : 384 kb/s
Channel(s) : 6 channels
Channel layout : L R C LFE Ls Rs
Sampling rate : 48.0 kHz
Frame rate : 31.250 FPS (1536 SPF)
Compression mode : Lossy
Stream size : 252 MiB (17%)
Alignment : Split across interleaves
Interleave, duration : 42 ms (1.00 video frame)
Interleave, preload duration : 500 ms
Service kind : Complete Main

Скриншоты

[202111.mytorrents.biz].t680795.torrent
Torrent: Registered [ 2020-08-31 14:04 ] · B181BE9867436938F69CBFF487D50BCB7859008D

Download .torrent

Download


Помочь трекеру

Status: checked
Size: 1.46 GB   (Completed: 5 times)
Rate: 
(Vote: 0)
Has thanked: 0  Thanks
Золото/Серебро:

Инструкция
Похожие темы
Display posts:    
Reply to topic

Current time is: 27-Nov 04:51

All times are UTC + 5



You cannot post new topics in this forum
You cannot reply to topics in this forum
You cannot edit your posts in this forum
You cannot delete your posts in this forum
You cannot vote in polls in this forum
You cannot attach files in this forum
You cannot download files in this forum