Скачать Защитник / Только правда / The Whole Truth (Кортни Хант / Courtney Hunt) [2015, триллер, драма, криминал, детектив, BDRip] (MVO : iTunes) в Тас-икс (Tas-ix)

DL-List and Torrent activity
Size:  1.46 GB   |    Registered:  3 months 3 days   |    Completed:  10 times

Seeder not seen: 4 hours

 
 
 
 
Author Message

tomas ®

Gender: Male

Longevity: 6 years 10 months

Posts: 1716

Репутация: 183 [+]

Наличие запрета:

[Profile] [PM]

Post 30-Aug-2020 23:52

[Quote]

Защитник / Только правда / The Whole Truth- Год выпуска: 2015
Страна: США
Жанр: триллер, драма, криминал, детектив
Слоган: «Мотив есть у каждого»
Продолжительность: 01:33:33-Возраст: 18+
Рейтинг MPAA: R-Перевод: Профессиональный (многоголосый закадровый) iTunes
Cубтитры: нет
Реклама: Нет-Сборы в мире: $ 1 667 849-Режиссер: Кортни Хант / Courtney Hunt
Сценарий: Николас Казан
Продюсер: Энтони Брегман, Элон Дершовиц, Кевин Скотт Фрайкс, ...
Оператор: Джулс О’Лафлин
Композитор: Евгений Гальперин, Саша Гальперин
Художник: Мара ЛеПере-Шлуп, Артур Йонгевард, Эбби О’Салливан, ...
Монтаж: Кейт Уильямс-В ролях: Киану Ривз, Рене Зеллвегер, Гугу Эмбата-Ро, Гэбриел Бассо, Джеймс Белуши, Джим Клок, Ричи Монтгомери, Кристофер Берри, Лара Грайс, Николь Барре и др.-Описание: Убит богатый банкир. Полиция застает его сына рядом с телом. Доказательства кажутся неопровержимыми, и подросток оказывается под следствием. За дело берется адвокат Ричард Рэмси. Желая докопаться до истины, он сам оказывается в смертельной опасности.-Качество видео: BDRip
Формат видео: AVI
Видео: XviD; 720x304; 1 837 kb/s; 23.976 FPS
Аудио: AC-3; 384 kb/s; 6 channels; 48.0 kHz-

MediaInfo

General
Format : AVI
Format/Info : Audio Video Interleave
File size : 1.46 GiB
Duration : 1 h 33 min
Overall bit rate : 2 230 kb/s
Writing application : VirtualDubMod 1.5.10.3 | www.virtualdub-fr.org || (build 2550/release)
Copyright : MegaPeer
Video
ID : 0
Format : MPEG-4 Visual
Format profile : Advanced Simple@L5
Format settings : BVOP1 / Custom Matrix
Format settings, BVOP : 1
Format settings, QPel : No
Format settings, GMC : No warppoints
Format settings, Matrix : Custom
Codec ID : XVID
Codec ID/Hint : XviD
Duration : 1 h 33 min
Bit rate : 1 837 kb/s
Width : 720 pixels
Height : 304 pixels
Display aspect ratio : 2.35:1
Frame rate : 23.976 (24000/1001) FPS
Color space : YUV
Chroma subsampling : 4:2:0
Bit depth : 8 bits
Scan type : Progressive
Compression mode : Lossy
Bits/(Pixel*Frame) : 0.350
Stream size : 1.20 GiB (82%)
Writing library : XviD 69
Audio
ID : 1
Format : AC-3
Format/Info : Audio Coding 3
Commercial name : Dolby Digital
Codec ID : 2000
Duration : 1 h 33 min
Bit rate mode : Constant
Bit rate : 384 kb/s
Channel(s) : 6 channels
Channel layout : L R C LFE Ls Rs
Sampling rate : 48.0 kHz
Frame rate : 31.250 FPS (1536 SPF)
Compression mode : Lossy
Stream size : 257 MiB (17%)
Alignment : Split across interleaves
Interleave, duration : 42 ms (1.00 video frame)
Interleave, preload duration : 500 ms
Service kind : Complete Main

Скриншоты

Интересные факты

* На роль в фильме был вначале утверждён Дэниэл Крэйг, однако за 4 дня до начала съёмок он покинул проект, и на его место пришёл Киану Ривз.
[202111.mytorrents.biz].t680793.torrent
Torrent: Registered [ 2020-08-30 23:52 ] · E93CE8B9BCDF67DA4F203B5AF18BB8FEA898741F

Download .torrent

Download


Помочь трекеру

Status: checked
Size: 1.46 GB   (Completed: 10 times)
Rate: 
(Vote: 1)
Has thanked: 2  Thanks   (List)
Золото/Серебро:

Инструкция
Похожие темы
Display posts:    
Reply to topic

Current time is: 03-Dec 01:59

All times are UTC + 5



You cannot post new topics in this forum
You cannot reply to topics in this forum
You cannot edit your posts in this forum
You cannot delete your posts in this forum
You cannot vote in polls in this forum
You cannot attach files in this forum
You cannot download files in this forum