Скачать Однажды на востоке / Bay Rong / Clash (Ле Тан Сон / Lee Tan Son) [2009, Боевик, BDRip 1080p] Лицензия в Тас-икс (Tas-ix)

DL-List and Torrent activity
Size:  6.77 GB   |    Registered:  3 months 2 days   |    Completed:  8 times
Seeders:  1  [  0 KB/s  ]   Show peers in full details
 
 
 
 
Author Message

NuRKHoNoFF ®

Gender: Male

Longevity: 2 years 8 months

Posts: 1053

Location: Каттакурган

Репутация: 226 [+]

Наличие запрета:

[Profile] [PM]

Post 23-Aug-2020 13:26

[Quote]

Однажды на востоке / Bay Rong / Clash -Год выпуска: 2009
Страна: Вьетнам
Жанр: Боевик
Продолжительность: 01:37:24
Перевод: Профессиональный (многоголосый, закадровый) [Лицензия]-Субтитры: Английские-Режиссер: Ле Тан Сон / Lee Tan Son-В ролях: Джонни Нгуйен, Вероника Нго, Хоанг Пхук Нгуйен, Лам Мин Тэнг, Хью Хиен, Труонг Те Винь, Нгуйен Хау, Ален Брюкселье, Франсуа де ла Торре, Изабель Ду-Описание: Дочь Чинь похищена. Чтобы вернуть ее целой и невредимой, Чинь должна выполнить несколько опасных миссий, ради которых она собирает отряд наемников. С одним из них, таинственным человеком по имени Куан, у Чинь завязываются близкие отношения. Но чем ближе заветная для Чинь цель, тем более запутанными становятся их отношения с Куаном — она понимает, что Куан не так прост, как кажется на первый взгляд, и что в этой истории у него есть свой собственный интерес.
- -Качество: BDRip 1080p
Формат: MKV
Видео: AVC, 8135 Kb/s, 1920x1080
Аудио №1: АС3, 2 ch, 320 Кбит/с | RUS
Аудио №2: DTS, 6 ch, 1509 Кбит/с | ENG-

MediaInfo

General
Unique ID : 240063528473007062470427351287952321601 (0xB49A8DC61BB72EB0F1DF8A1EBC0C2C41)
Complete name : Bay.Rong.2009.BluRay.1080p.x264.ELEKTRI4KA.UNIONGANG.mkv
Format : Matroska
Format version : Version 4
File size : 6.77 GiB
Duration : 1 h 37 min
Overall bit rate : 9 945 kb/s
Movie name : Bay.Rong.2009.BluRay.1080p.x264.ELEKTRI4KA.UNIONGANG
Encoded date : UTC 2020-08-23 07:45:28
Writing application : mkvmerge v45.0.0 ('Heaven in Pennies') 64-bit
Writing library : libebml v1.3.10 + libmatroska v1.5.2
Video
ID : 1
Format : AVC
Format/Info : Advanced Video Codec
Format profile : High@L4.1
Format settings : CABAC / 4 Ref Frames
Format settings, CABAC : Yes
Format settings, Reference : 4 frames
Codec ID : V_MPEG4/ISO/AVC
Duration : 1 h 37 min
Bit rate : 8 135 kb/s
Width : 1 920 pixels
Height : 1 080 pixels
Display aspect ratio : 16:9
Frame rate mode : Constant
Frame rate : 23.976 (24000/1001) FPS
Color space : YUV
Chroma subsampling : 4:2:0
Bit depth : 8 bits
Scan type : Progressive
Bits/(Pixel*Frame) : 0.164
Stream size : 5.52 GiB (82%)
Title : ELEKTRI4KA.UNIONGANG
Writing library : x264 core 120 r2146 bcd41db
Encoding settings : cabac=1 / ref=4 / deblock=1:0:0 / analyse=0x3:0x113 / me=umh / subme=7 / psy=1 / psy_rd=1.00:0.15 / mixed_ref=1 / me_range=16 / chroma_me=1 / trellis=1 / 8x8dct=1 / cqm=0 / deadzone=21,11 / fast_pskip=0 / chroma_qp_offset=-3 / threads=12 / sliced_threads=0 / nr=0 / decimate=1 / interlaced=0 / bluray_compat=0 / constrained_intra=0 / bframes=3 / b_pyramid=2 / b_adapt=1 / b_bias=0 / direct=1 / weightb=1 / open_gop=0 / weightp=2 / keyint=250 / keyint_min=23 / scenecut=40 / intra_refresh=0 / rc_lookahead=40 / rc=2pass / mbtree=1 / bitrate=8135 / ratetol=1.0 / qcomp=0.60 / qpmin=0 / qpmax=69 / qpstep=4 / cplxblur=20.0 / qblur=0.5 / ip_ratio=1.40 / aq=1:1.00
Language : English
Default : Yes
Forced : No
Audio #1
ID : 2
Format : AC-3
Format/Info : Audio Coding 3
Commercial name : Dolby Digital
Codec ID : A_AC3
Duration : 1 h 37 min
Bit rate mode : Constant
Bit rate : 320 kb/s
Channel(s) : 2 channels
Channel layout : L R
Sampling rate : 48.0 kHz
Frame rate : 31.250 FPS (1536 SPF)
Compression mode : Lossy
Stream size : 223 MiB (3%)
Title : Licenziya ELEKTRI4KA.UNIONGANG
Language : Russian
Service kind : Complete Main
Default : Yes
Forced : Yes
Audio #2
ID : 3
Format : DTS
Format/Info : Digital Theater Systems
Codec ID : A_DTS
Duration : 1 h 37 min
Bit rate mode : Constant
Bit rate : 1 509 kb/s
Channel(s) : 6 channels
Channel layout : C L R Ls Rs LFE
Sampling rate : 48.0 kHz
Frame rate : 93.750 FPS (512 SPF)
Bit depth : 24 bits
Compression mode : Lossy
Stream size : 1.03 GiB (15%)
Title : ELEKTRI4KA.UNIONGANG
Language : English
Default : No
Forced : No
Text
ID : 4
Format : UTF-8
Codec ID : S_TEXT/UTF8
Codec ID/Info : UTF-8 Plain Text
Duration : 1 h 32 min
Bit rate : 22 b/s
Count of elements : 549
Stream size : 15.0 KiB (0%)
Language : English
Default : No
Forced : No
[202111.mytorrents.biz].t680745.torrent
 GOLD TORRENT! DOWNLOAD TRAFFIC DOES NOT CONSIDER! 
Вечный
Torrent: Registered [ 2020-08-23 13:26 ] · 1A24916F4962945830F0B9DC154770FC16E66A83

Download .torrent

Download


Помочь трекеру

Status: checked
Size: 6.77 GB   (Completed: 8 times)
Rate: 
(Vote: 3)
Has thanked: 4  Thanks   (List)
Золото/Серебро:

Инструкция
Похожие темы
Display posts:    
Reply to topic

Current time is: 25-Nov 22:19

All times are UTC + 5



You cannot post new topics in this forum
You cannot reply to topics in this forum
You cannot edit your posts in this forum
You cannot delete your posts in this forum
You cannot vote in polls in this forum
You cannot attach files in this forum
You cannot download files in this forum