Скачать Час истины / Hour of Lead / The Vanished (Питер Фачинелли / Peter Facinelli) [2020, боевик, триллер, детектив, WEB-DL 1080p] (Dub : iTunes) (Sub Rus + Original Eng) в Тас-икс (Tas-ix)

DL-List and Torrent activity
Size:  4.27 GB   |    Registered:  3 months 5 days   |    Completed:  24 times

Seeder not seen: 4 hours

 
 
 
 
Author Message

tomas ®

Gender: Male

Longevity: 6 years 10 months

Posts: 1716

Репутация: 183 [+]

Наличие запрета:

[Profile] [PM]

Post 22-Aug-2020 16:40

[Quote]

Час истины / Hour of Lead / The Vanished- Год выпуска: 2020
Страна: США
Жанр: боевик, триллер, детектив
Продолжительность: 01:54:41-Перевод: Профессиональный (дублированный) iTunes
Cубтитры: Русские (полные - отключаемые)
Оригинальная аудиодорожка: Английская
Навигация: Есть-Режиссер: Питер Фачинелли / Peter Facinelli
Сценарий: Питер Фачинелли
Продюсер: Джефф Эллиотт, Брэндон Менчен, Билл Бромили, ...
Оператор: Кори Геряк
Композитор: Саша Чабан
Художник: Burns Burns, Скотт Дэниэл, Leah Hudspeth, ...
Монтаж: Вон Бьен III-В ролях: Энн Хеч, Томас Джейн, Джейсон Патрик, Питер Фачинелли, Алекс Хейдон, Алексей Арчер, Кристофер Венте, Джон Д. Хикман, Mitchell L. Johnson, Кейкей Хейм и др-Описание: У супружеской пары, остановившейся в кемпинге на берегу реки, бесследно пропадает дочь. Полиция не в силах отыскать девочку, но муж с женой не остановятся ни перед чем, чтобы найти своего ребенка. Однако никто не догадывается, что за этим исчезновением скрывается страшная правда.-Качество видео: WEB-DL 1080p
Формат видео: MKV
Видео: AVC; 4 554 kb/s; 1 920x804; 24.000 FPS
Аудио#1: AC-3; 384 kb/s; 6 channels; 48.0 kHz (Rus)
Аудио#2: AC-3; 384 kb/s; 6 channels; 48.0 kHz (Eng)-

MediaInfo

General
Unique ID : 181092328617161165626623585591479650181 (0x883D1D2481158E5DBD7C25E9DBDA4785)
Format : Matroska
Format version : Version 4
File size : 4.27 GiB
Duration : 1 h 54 min
Overall bit rate : 5 324 kb/s
Movie name : .ELEKTRI4KA.UNIONGANG.
Encoded date : UTC 2020-08-21 08:44:36
Writing application : mkvmerge v8.3.0 ('Over the Horizon') 64bit
Writing library : libebml v1.3.1 + libmatroska v1.4.2
Video
ID : 1
Format : AVC
Format/Info : Advanced Video Codec
Format profile : High@L4
Format settings : CABAC / 5 Ref Frames
Format settings, CABAC : Yes
Format settings, Reference fra : 5 frames
Codec ID : V_MPEG4/ISO/AVC
Duration : 1 h 54 min
Bit rate : 4 554 kb/s
Width : 1 920 pixels
Height : 804 pixels
Display aspect ratio : 2.40:1
Frame rate mode : Constant
Frame rate : 24.000 FPS
Color space : YUV
Chroma subsampling : 4:2:0
Bit depth : 8 bits
Scan type : Progressive
Bits/(Pixel*Frame) : 0.123
Stream size : 3.65 GiB (86%)
Language : English
Default : Yes
Forced : No
Color range : Limited
Color primaries : BT.709
Transfer characteristics : BT.709
Matrix coefficients : BT.709
Audio #1
ID : 2
Format : AC-3
Format/Info : Audio Coding 3
Commercial name : Dolby Digital
Codec ID : A_AC3
Duration : 1 h 54 min
Bit rate mode : Constant
Bit rate : 384 kb/s
Channel(s) : 6 channels
Channel layout : L R C LFE Ls Rs
Sampling rate : 48.0 kHz
Frame rate : 31.250 FPS (1536 SPF)
Compression mode : Lossy
Stream size : 315 MiB (7%)
Title : iTunes
Language : Russian
Service kind : Complete Main
Default : Yes
Forced : Yes
Audio #2
ID : 3
Format : AC-3
Format/Info : Audio Coding 3
Commercial name : Dolby Digital
Codec ID : A_AC3
Duration : 1 h 54 min
Bit rate mode : Constant
Bit rate : 384 kb/s
Channel(s) : 6 channels
Channel layout : L R C LFE Ls Rs
Sampling rate : 48.0 kHz
Frame rate : 31.250 FPS (1536 SPF)
Compression mode : Lossy
Stream size : 315 MiB (7%)
Language : English
Service kind : Complete Main
Default : No
Forced : No
Text
ID : 4
Format : UTF-8
Codec ID : S_TEXT/UTF8
Codec ID/Info : UTF-8 Plain Text
Duration : 1 h 51 min
Bit rate : 79 b/s
Count of elements : 1266
Stream size : 65.3 KiB (0%)
Title : Full
Language : Russian
Default : No
Forced : No
Menu
00:00:00.000 : ru:Глава 1
00:04:42.958 : ru:Глава 2
00:13:35.958 : ru:Глава 3
00:18:31.374 : ru:Глава 4
00:23:03.374 : ru:Глава 5
00:29:45.707 : ru:Глава 6
00:37:53.748 : ru:Глава 7
00:48:15.581 : ru:Глава 8
00:56:11.997 : ru:Глава 9
01:05:33.247 : ru:Глава 10
01:16:48.413 : ru:Глава 11
01:25:14.038 : ru:Глава 12
01:36:12.496 : ru:Глава 13
01:41:48.662 : ru:Глава 14

Скриншоты

[202111.mytorrents.biz].t680740.torrent
 GOLD TORRENT! DOWNLOAD TRAFFIC DOES NOT CONSIDER! 
Осталось: [ 23-Aug-2021 12:08 ]
Torrent: Registered [ 2020-08-22 16:40 ] · 559C24BAAE30A5D118759A5932C5861D598D9567

Download .torrent

Download


Помочь трекеру

Status: checked
Size: 4.27 GB   (Completed: 24 times)
Rate: 
(Vote: 0)
Has thanked: 3  Thanks   (List)
Золото/Серебро:

Инструкция
Похожие темы
Display posts:    
Reply to topic

Current time is: 28-Nov 01:00

All times are UTC + 5



You cannot post new topics in this forum
You cannot reply to topics in this forum
You cannot edit your posts in this forum
You cannot delete your posts in this forum
You cannot vote in polls in this forum
You cannot attach files in this forum
You cannot download files in this forum