Скачать Хранитель дворца / Guardian of the Palace (Юйхай Вэй / Yuhai Wei) [2020, боевик, фэнтези, приключения, HEVC / WEB-DL (1080p)] RealFake в Тас-икс (Tas-ix)

DL-List and Torrent activity
Size:  3.09 GB   |    Registered:  3 months 19 days   |    Completed:  32 times

Seeder not seen: 4 hours

 
 
 
 
Author Message

tomas ®

Gender: Male

Longevity: 6 years 10 months

Posts: 1716

Репутация: 183 [+]

Наличие запрета:

[Profile] [PM]

Post 17-Aug-2020 20:36

[Quote]

Хранитель дворца / Guardian of the Palace- Год выпуска: 2020
Страна: Китай
Жанр: боевик, фэнтези, приключения
Продолжительность: 01:30:11-Перевод: Любительский (двухголосный, закадровый) RealFake
Перевод: Любительский (одноголосный, закадровый) Виктор Береговых
Оригинальная дорожка: Есть
Субтитры Русские (полные, отключаемые) + 10 языков-Режиссер: Юйхай Вэй / Yuhai Wei-В ролях: Юйсы Пэн, Ду И-Хэн, СэммиХун, Хэ Ижун, Лу Цивэй, Чень Имин-Описание: Тысячу лет назад страна Хэйшуй процветала и ее улицы были вымощены золотом. Но за одну ночь все изменилось. Многолетняя битва с пустыней была проиграна и страну Хэйшуй поглотил песок. Спустя тысячу лет в небольшом городке неподалеку началась эпидемия чумы. В книгах сказано, что только лунный камень из дворца древней страны Хэйшуй способен остановить болезнь. Отважные герои отправляются на поиски лунного камня.-Качество: WEB-DL (1080p)
Формат: MKV
Видео кодек: HEVC
Аудио кодек: AAC
Видео: 1920x816, 4 363 kb/s, 24.000 FPS
Аудио#1: 192 kb/s, 2 channels, 44.1 kHz (DVO)
Аудио#2: AC-3, 224 kb/s, 2 channels, 48.0 kHz (VO)
Аудио#3: 125 kb/s, 2 channels, 44.1 kHz (Original)-

Скриншоты

MI

General
Unique ID : 312383694583093189080261223108689008055 (0xEB02E9415C94EFF18C20F5C988E815B7)
Format : Matroska
Format version : Version 4
File size : 3.09 GiB
Duration : 1 h 30 min
Overall bit rate : 4 907 kb/s
Movie name : Хранитель дворца / Guardian of the Palace (2020) WEB-DL 1080p
Encoded date : UTC 2020-08-10 10:09:36
Writing application : mkvmerge v42.0.0 ('Overtime') 32-bit
Writing library : libebml v1.3.10 + libmatroska v1.5.2 / Lavf58.43.100
Comment : FLTTH (Fu Li To The Home)
Video
ID : 1
Format : HEVC
Format/Info : High Efficiency Video Coding
Format profile : Main@L4@High
Codec ID : V_MPEGH/ISO/HEVC
Duration : 1 h 30 min
Bit rate : 4 363 kb/s
Width : 1 920 pixels
Height : 816 pixels
Display aspect ratio : 2.35:1
Frame rate mode : Constant
Frame rate : 24.000 FPS
Color space : YUV
Chroma subsampling : 4:2:0
Bit depth : 8 bits
Bits/(Pixel*Frame) : 0.116
Stream size : 2.75 GiB (89%)
Title : Хранитель дворца / Guardian of the Palace (2020) WEB-DL 1080p
Language : Chinese
Default : Yes
Forced : Yes
Color range : Limited
Audio #1
ID : 2
Format : AAC LC
Format/Info : Advanced Audio Codec Low Complexity
Codec ID : A_AAC-2
Duration : 1 h 30 min
Bit rate : 192 kb/s
Channel(s) : 2 channels
Channel layout : L R
Sampling rate : 44.1 kHz
Frame rate : 43.066 FPS (1024 SPF)
Compression mode : Lossy
Stream size : 124 MiB (4%)
Title : DVO RealFake
Language : Russian
Default : Yes
Forced : Yes
Audio #2
ID : 3
Format : AC-3
Format/Info : Audio Coding 3
Commercial name : Dolby Digital
Codec ID : A_AC3
Duration : 1 h 30 min
Bit rate mode : Constant
Bit rate : 224 kb/s
Channel(s) : 2 channels
Channel layout : L R
Sampling rate : 48.0 kHz
Frame rate : 31.250 FPS (1536 SPF)
Compression mode : Lossy
Stream size : 144 MiB (5%)
Title : VO, Виктор Береговых
Language : Russian
Service kind : Complete Main
Default : No
Forced : No
Audio #3
ID : 4
Format : AAC LC
Format/Info : Advanced Audio Codec Low Complexity
Codec ID : A_AAC-2
Duration : 1 h 30 min
Bit rate : 125 kb/s
Channel(s) : 2 channels
Channel layout : L R
Sampling rate : 44.1 kHz
Frame rate : 43.066 FPS (1024 SPF)
Compression mode : Lossy
Stream size : 80.4 MiB (3%)
Title : Mandarin(Putonghua)
Language : Chinese
Default : No
Forced : No
Text #1
ID : 5
Format : UTF-8
Codec ID : S_TEXT/UTF8
Codec ID/Info : UTF-8 Plain Text
Duration : 1 h 25 min
Bit rate : 39 b/s
Count of elements : 676
Stream size : 24.6 KiB (0%)
Title : Виктор Береговых
Language : Russian
Default : No
Forced : No
Text #2
ID : 6
Format : UTF-8
Codec ID : S_TEXT/UTF8
Codec ID/Info : UTF-8 Plain Text
Duration : 1 h 23 min
Bit rate : 23 b/s
Count of elements : 784
Stream size : 14.5 KiB (0%)
Title : Cantonese
Language : Chinese
Default : No
Forced : No
Text #3
ID : 7
Format : UTF-8
Codec ID : S_TEXT/UTF8
Codec ID/Info : UTF-8 Plain Text
Duration : 1 h 23 min
Bit rate : 23 b/s
Count of elements : 784
Stream size : 14.5 KiB (0%)
Title : Mandarin
Language : Chinese
Default : No
Forced : No
Text #4
ID : 8
Format : UTF-8
Codec ID : S_TEXT/UTF8
Codec ID/Info : UTF-8 Plain Text
Duration : 1 h 24 min
Bit rate : 30 b/s
Count of elements : 717
Stream size : 18.8 KiB (0%)
Title : English
Language : English
Default : No
Forced : No
Text #5
ID : 9
Format : UTF-8
Codec ID : S_TEXT/UTF8
Codec ID/Info : UTF-8 Plain Text
Duration : 1 h 24 min
Bit rate : 37 b/s
Count of elements : 795
Stream size : 22.8 KiB (0%)
Title : Indonesian
Language : Indonesian
Default : No
Forced : No
Text #6
ID : 10
Format : UTF-8
Codec ID : S_TEXT/UTF8
Codec ID/Info : UTF-8 Plain Text
Duration : 1 h 24 min
Bit rate : 78 b/s
Count of elements : 788
Stream size : 48.6 KiB (0%)
Title : Thai
Language : Thai
Default : No
Forced : No
Text #7
ID : 11
Format : UTF-8
Codec ID : S_TEXT/UTF8
Codec ID/Info : UTF-8 Plain Text
Duration : 1 h 24 min
Bit rate : 34 b/s
Count of elements : 728
Stream size : 21.4 KiB (0%)
Title : Malay
Language : Malay
Default : No
Forced : No
Text #8
ID : 12
Format : UTF-8
Codec ID : S_TEXT/UTF8
Codec ID/Info : UTF-8 Plain Text
Duration : 1 h 23 min
Bit rate : 43 b/s
Count of elements : 789
Stream size : 26.3 KiB (0%)
Title : Vietnamese
Language : Vietnamese
Default : No
Forced : No
Text #9
ID : 13
Format : UTF-8
Codec ID : S_TEXT/UTF8
Codec ID/Info : UTF-8 Plain Text
Duration : 1 h 24 min
Bit rate : 33 b/s
Count of elements : 788
Stream size : 21.0 KiB (0%)
Title : Korean
Language : Korean
Default : No
Forced : No
Text #10
ID : 14
Format : UTF-8
Codec ID : S_TEXT/UTF8
Codec ID/Info : UTF-8 Plain Text
Duration : 1 h 24 min
Bit rate : 44 b/s
Count of elements : 784
Stream size : 27.2 KiB (0%)
Title : Arabic
Language : Arabic
Default : No
Forced : No
Text #11
ID : 15
Format : UTF-8
Codec ID : S_TEXT/UTF8
Codec ID/Info : UTF-8 Plain Text
Duration : 1 h 24 min
Bit rate : 29 b/s
Count of elements : 785
Stream size : 18.1 KiB (0%)
Title : Spanish (Castilian)
Language : Spanish
Default : No
Forced : No
[202111.mytorrents.biz].t680707.torrent
Torrent: Registered [ 2020-08-17 20:36 ] · 1F3814BBD773C52C9DE4B8CFEB74D35999D4184F

Download .torrent

Download


Помочь трекеру

Status: checked
Size: 3.09 GB   (Completed: 32 times)
Rate: 
(Vote: 2)
Has thanked: 4  Thanks   (List)
Золото/Серебро:

Инструкция
Похожие темы
Display posts:    
Reply to topic

Current time is: 06-Dec 06:15

All times are UTC + 5



You cannot post new topics in this forum
You cannot reply to topics in this forum
You cannot edit your posts in this forum
You cannot delete your posts in this forum
You cannot vote in polls in this forum
You cannot attach files in this forum
You cannot download files in this forum