Скачать Лето 84 / Summer of 84 (Франсуа Симар / François Simard, Анук Висселль / Anouk Whissell, Йоанн-Карл Висселль / Yoann-Karl Whissell) [2017, триллер, детектив, криминал, BDRip-AVC] (Dub : iTunes) (Sub Rus + Original Eng) в Тас-икс (Tas-ix)

DL-List and Torrent activity
Size:  2.83 GB   |    Registered:  3 months 9 days   |    Completed:  16 times

Seeder not seen: 4 hours

 
 
 
 
Author Message

tomas ®

Gender: Male

Longevity: 6 years 10 months

Posts: 1716

Репутация: 183 [+]

Наличие запрета:

[Profile] [PM]

Post 16-Aug-2020 13:02

[Quote]

Лето 84 / Summer of 84- Год выпуска: 2017
Страна: США, Канада
Жанр: триллер, детектив, криминал
Продолжительность: 01:45:36-Сборы в мире: $ 42 027-Перевод: Профессиональный (дублированный) iTunes
Перевод: Профессиональный (многоголосый, закадровый) Jaskier
Перевод: Авторский (одноголосный, закадровый) Живов
Оригинальная аудиодорожка: английская
Cубтитры: Русские (полные, отключаемые)
Cубтитры: Украинские (полные, отключаемые)
Cубтитры: Английские (полные, отключаемые)-Режиссер: Франсуа Симар / François Simard, Анук Висселль / Anouk Whissell, Йоанн-Карл Висселль / Yoann-Karl Whissell
Сценарий: Matt Leslie, Stephen J. Smith
Продюсер: Matt Leslie, Джеймисон Паркер, Ван Тоффлер, ...
Оператор: Жан-Филипп Бернье
Композитор: Жан-Филипп Бернье, Jean-Nicolas Leupi, Ле Матос
Художник: Джастин Людвиг, Catriona Robinson, Флоренс Барретт, ...
Монтаж: Остин Эндрюс-В ролях: Грэм Верчир, Джуда Льюис, Калеб Эмери, Кори Грютер-Эндрю, Тиера Сковбай, Рич Соммер, Джейсон Грей-Стенфорд, Шона Йоханнесен, Уильям МакДональд, Харрисон Уд-Описание: Четверо 15-летних друзей проводят лето 1984 года за необычным занятием: они вычисляют серийного убийцу, несколько лет подряд орудующего в округе. Все улики ведут к соседскому дому, где живёт уважаемый офицер полиции.-Качество видео: BDRip-AVC
Формат видео: MKV
Видео: 1024x428; 2 117 kb/s; 23.976
Аудио#1: AC-3; 384 kb/s; 6 channels; 48.0 kHz (Dub)
Аудио#2: AC-3; 384 kb/s; 6 channels; 48.0 kHz (MVO)
Аудио#3: AC-3; 384 kb/s; 6 channels; 48.0 kHz (AVO)
Аудио#4: AC-3; 384 kb/s; 6 channels; 48.0 kHz (Eng)

MediaInfo

Unique ID : 250188993343395566057328627201568684993 (0xBC38A5BC3E474EC921577509DB0C3BC1)
Format : Matroska
Format version : Version 4
File size : 2.83 GiB
Duration : 1 h 45 min
Overall bit rate : 3 842 kb/s
Movie name : Лето 84 / Summer of 84 (2018)
Encoded date : UTC 2020-08-13 07:27:20
Writing application : mkvmerge v47.0.0 ('Black Flag') 64-bit
Writing library : libebml v1.3.10 + libmatroska v1.5.2
Cover : Yes
Attachments : cover.jpg
Video
ID : 1
Format : AVC
Format/Info : Advanced Video Codec
Format profile : High@L4.1
Format settings : CABAC / 12 Ref Frames
Format settings, CABAC : Yes
Format settings, Reference fra : 12 frames
Codec ID : V_MPEG4/ISO/AVC
Duration : 1 h 45 min
Bit rate : 2 117 kb/s
Width : 1 024 pixels
Height : 428 pixels
Display aspect ratio : 2.40:1
Frame rate mode : Constant
Frame rate : 23.976 (24000/1001) FPS
Color space : YUV
Chroma subsampling : 4:2:0
Bit depth : 8 bits
Scan type : Progressive
Bits/(Pixel*Frame) : 0.201
Stream size : 1.56 GiB (55%)
Title : #stillet
Writing library : x264 core 152 r2851bm ba24899
Encoding settings : cabac=1 / ref=12 / deblock=1:-2:-2 / analyse=0x3:0x113 / me=umh / subme=10 / psy=1 / psy_rd=1.00:0.15 / mixed_ref=1 / me_range=32 / chroma_me=1 / trellis=2 / 8x8dct=1 / cqm=0 / deadzone=21,11 / fast_pskip=0 / chroma_qp_offset=-3 / threads=8 / lookahead_threads=3 / sliced_threads=0 / nr=0 / decimate=0 / interlaced=0 / bluray_compat=0 / constrained_intra=0 / bframes=14 / b_pyramid=2 / b_adapt=2 / b_bias=0 / direct=3 / weightb=1 / open_gop=0 / weightp=2 / keyint=240 / keyint_min=23 / scenecut=40 / intra_refresh=0 / rc=2pass / mbtree=0 / bitrate=2117 / ratetol=1.0 / qcomp=0.60 / qpmin=0 / qpmax=69 / qpstep=4 / cplxblur=20.0 / qblur=0.5 / ip_ratio=1.40 / pb_ratio=1.30 / aq=1:1.00
Language : English
Default : Yes
Forced : No
Audio #1
ID : 2
Format : AC-3
Format/Info : Audio Coding 3
Commercial name : Dolby Digital
Codec ID : A_AC3
Duration : 1 h 45 min
Bit rate mode : Constant
Bit rate : 384 kb/s
Channel(s) : 6 channels
Channel layout : L R C LFE Ls Rs
Sampling rate : 48.0 kHz
Frame rate : 31.250 FPS (1536 SPF)
Compression mode : Lossy
Stream size : 290 MiB (10%)
Title : DUB | iTunes
Language : Russian
Service kind : Complete Main
Default : Yes
Forced : No
Audio #2
ID : 3
Format : AC-3
Format/Info : Audio Coding 3
Commercial name : Dolby Digital
Codec ID : A_AC3
Duration : 1 h 45 min
Bit rate mode : Constant
Bit rate : 448 kb/s
Channel(s) : 6 channels
Channel layout : L R C LFE Ls Rs
Sampling rate : 48.0 kHz
Frame rate : 31.250 FPS (1536 SPF)
Compression mode : Lossy
Stream size : 338 MiB (12%)
Title : MVO | Jaskier
Language : Russian
Service kind : Complete Main
Default : No
Forced : No
Audio #3
ID : 4
Format : AC-3
Format/Info : Audio Coding 3
Commercial name : Dolby Digital
Codec ID : A_AC3
Duration : 1 h 45 min
Bit rate mode : Constant
Bit rate : 448 kb/s
Channel(s) : 6 channels
Channel layout : L R C LFE Ls Rs
Sampling rate : 48.0 kHz
Frame rate : 31.250 FPS (1536 SPF)
Compression mode : Lossy
Stream size : 338 MiB (12%)
Title : AVO | Живов
Language : Russian
Service kind : Complete Main
Default : No
Forced : No
Audio #4
ID : 5
Format : AC-3
Format/Info : Audio Coding 3
Commercial name : Dolby Digital
Codec ID : A_AC3
Duration : 1 h 45 min
Bit rate mode : Constant
Bit rate : 448 kb/s
Channel(s) : 6 channels
Channel layout : L R C LFE Ls Rs
Sampling rate : 48.0 kHz
Frame rate : 31.250 FPS (1536 SPF)
Compression mode : Lossy
Stream size : 338 MiB (12%)
Language : English
Service kind : Complete Main
Default : No
Forced : No
Text #1
ID : 6
Format : UTF-8
Codec ID : S_TEXT/UTF8
Codec ID/Info : UTF-8 Plain Text
Duration : 1 h 40 min
Bit rate : 99 b/s
Count of elements : 1604
Stream size : 73.5 KiB (0%)
Title : Full
Language : Russian
Default : No
Forced : No
Text #2
ID : 7
Format : UTF-8
Codec ID : S_TEXT/UTF8
Codec ID/Info : UTF-8 Plain Text
Duration : 1 h 41 min
Bit rate : 98 b/s
Count of elements : 1606
Stream size : 73.0 KiB (0%)
Title : Full
Language : Ukrainian
Default : No
Forced : No
Text #3
ID : 8
Format : UTF-8
Codec ID : S_TEXT/UTF8
Codec ID/Info : UTF-8 Plain Text
Duration : 1 h 40 min
Bit rate : 63 b/s
Count of elements : 1772
Stream size : 47.0 KiB (0%)
Title : Full
Language : English
Default : No
Forced : No
Menu
00:00:00.000 : en:Chapter 1
00:20:01.200 : en:Chapter 2
00:40:02.400 : en:Chapter 3
01:00:04.601 : en:Chapter 4
01:20:04.799 : en:Chapter 5
01:30:06.401 : en:Chapter 6
01:41:03.057 : en:Chapter 7
01:45:36.330 : en:Chapter 8

Скриншоты

[202111.mytorrents.biz].t680701.torrent
Torrent: Registered [ 2020-08-16 13:02 ] · FF21E9AB18210F771C8036BE67E86D13976FCBE5

Download .torrent

Download


Помочь трекеру

Status: checked
Size: 2.83 GB   (Completed: 16 times)
Rate: 
(Vote: 1)
Has thanked: 2  Thanks   (List)
Золото/Серебро:

Инструкция
Похожие темы
Display posts:    
Reply to topic

Current time is: 26-Nov 01:19

All times are UTC + 5



You cannot post new topics in this forum
You cannot reply to topics in this forum
You cannot edit your posts in this forum
You cannot delete your posts in this forum
You cannot vote in polls in this forum
You cannot attach files in this forum
You cannot download files in this forum