Скачать Дрожь земли 6 / Tremors: A Cold Day in Hell (Дон Майкл Пол / Don Michael Paul) [2018, ужасы, фантастика, боевик, триллер, комедия, приключения, HDRip] (Dub) (Sub Eng + Original Eng) в Тас-икс (Tas-ix)

DL-List and Torrent activity
Size:  1.46 GB   |    Registered:  3 months 18 days   |    Completed:  28 times
Seeders:  1  [  0 KB/s  ]   Show peers in full details
 
 
 
 
Author Message

tomas ®

Gender: Male

Longevity: 6 years 10 months

Posts: 1716

Репутация: 183 [+]

Наличие запрета:

[Profile] [PM]

Post 09-Aug-2020 12:15

[Quote]

Дрожь земли 6 / Tremors: A Cold Day in Hell- Год выпуска: 2018
Страна: США, ЮАР
Жанр: ужасы, фантастика, боевик, триллер, комедия, приключения
Продолжительность: 01:37:58
Рейтинг MPAA: PG-13-Перевод: Профессиональный (дублированный) Третий канал
Cубтитры: английские (внешние)
Оригинальная аудиодорожка: английская
Реклама: Нет-Режиссер: Дон Майкл Пол / Don Michael Paul
Сценарий: Джон Уэлплей, Брент Мэддок, С.С. Уилсон
Продюсер: Майк Эллиот, Грег Холстейн, Донован Робертс-Бакстер, ...
Оператор: Хейн Де Воз
Композитор: Брайан Мантия, Фредерик Вьедманн
Художник: Эндрю Орландо, Трэйси Перкинс, Даниэль Нокс, ...
Монтаж: Камерон Халленбек-В ролях: Майкл Гросс, Джессика Энсти, Алистер Молтон-Блэк, Поль дю Туа, Кино Ли Гектор, Джейми Кеннеди, Дэнни Кеог, Грег Крик, Джеми-Ли Мани, Kiroshan Naidoo-Описание: Берт Гаммер и его сын Трэвис Уэлкер отправляются в Канаду, чтобы расследовать серию атак гигантских червей, и оказываются среди грабоидов. Берт начинает подозревать, что военные пытаются приспособить подземных монстров для своих нужд, но тут дело принимает неожиданный оборот: один из грабоидов отравляет его. Единственное спасение — сделать антидот из свежего яда, но для этого надо подоить грабоида.-Качество видео: HDRip
Формат видео: AVI
Видео: XviD; 720x400; 23.976 FPS; 1 740 kb/s
Аудио: AC-3; 192 kb/s; 2 channels; 48.0 kHz (Dub)
Аудио: AC-3; 192 kb/s; 2 channels; 48.0 kHz (Eng)-

MediaInfo

General
Format : AVI
Format/Info : Audio Video Interleave
File size : 1.46 GiB
Duration : 1 h 37 min
Overall bit rate : 2 138 kb/s
Movie name : Дрожь земли 6_2018_HDRip
Writing application : VirtualDubMod 1.5.10.3 | www.virtualdub-fr.org || (build 2550/release)
Copyright : порошков
Video
ID : 0
Format : MPEG-4 Visual
Format profile : Advanced Simple@L5
Format settings : BVOP1 / Custom Matrix
Format settings, BVOP : 1
Format settings, QPel : No
Format settings, GMC : No warppoints
Format settings, Matrix : Custom
Codec ID : XVID
Codec ID/Hint : XviD
Duration : 1 h 37 min
Bit rate : 1 740 kb/s
Width : 720 pixels
Height : 400 pixels
Display aspect ratio : 16:9
Frame rate : 23.976 (24000/1001) FPS
Color space : YUV
Chroma subsampling : 4:2:0
Bit depth : 8 bits
Scan type : Progressive
Compression mode : Lossy
Bits/(Pixel*Frame) : 0.252
Stream size : 1.19 GiB (81%)
Writing library : XviD 73
Audio #1
ID : 1
Format : AC-3
Format/Info : Audio Coding 3
Commercial name : Dolby Digital
Codec ID : 2000
Duration : 1 h 37 min
Bit rate mode : Constant
Bit rate : 192 kb/s
Channel(s) : 2 channels
Channel layout : L R
Sampling rate : 48.0 kHz
Frame rate : 31.250 FPS (1536 SPF)
Compression mode : Lossy
Stream size : 135 MiB (9%)
Alignment : Split across interleaves
Interleave, duration : 42 ms (1.00 video frame)
Interleave, preload duration : 500 ms
Title : rus
Service kind : Complete Main
Audio #2
ID : 2
Format : AC-3
Format/Info : Audio Coding 3
Commercial name : Dolby Digital
Codec ID : 2000
Duration : 1 h 37 min
Bit rate mode : Constant
Bit rate : 192 kb/s
Channel(s) : 2 channels
Channel layout : L R
Sampling rate : 48.0 kHz
Frame rate : 31.250 FPS (1536 SPF)
Compression mode : Lossy
Stream size : 135 MiB (9%)
Alignment : Split across interleaves
Interleave, duration : 42 ms (1.00 video frame)
Interleave, preload duration : 500 ms
Title : eng
Service kind : Complete Main

Скриншоты

[202111.mytorrents.biz].t680652.torrent
Torrent: Registered [ 2020-08-09 12:15 ] · 819E61BFAED0FFA11F4CDB0EF424E834794CBB0E

Download .torrent

Download


Помочь трекеру

Status: checked
Size: 1.46 GB   (Completed: 28 times)
Rate: 
(Vote: 3)
Has thanked: 4  Thanks   (List)
Золото/Серебро:

Инструкция
Похожие темы
Display posts:    
Reply to topic

Current time is: 28-Nov 01:48

All times are UTC + 5



You cannot post new topics in this forum
You cannot reply to topics in this forum
You cannot edit your posts in this forum
You cannot delete your posts in this forum
You cannot vote in polls in this forum
You cannot attach files in this forum
You cannot download files in this forum