Скачать #Выжить / #Saraitta / #Alive (Чо Иль-хён / Jo Il-hyeong / Il Cho) [2020, ужасы, боевик, WEB-DLRip] (DVO : RealFake) в Тас-икс (Tas-ix)

DL-List and Torrent activity
Size:  1.46 GB   |    Registered:  3 months 18 days   |    Completed:  22 times
Seeders:  1  [  0 KB/s  ]   Show peers in full details
 
 
 
 
Author Message

tomas ®

Gender: Male

Longevity: 6 years 10 months

Posts: 1714

Репутация: 183 [+]

Наличие запрета:

[Profile] [PM]

Post 07-Aug-2020 17:08

[Quote]

#Выжить / #Saraitta / #Alive- Год выпуска: 2020
Страна: Корея Южная
Жанр: ужасы, боевик
Продолжительность: 01:38:09-Сборы в мире: $ 13 330 665-Перевод: Любительский (двухголосый закадровый) RealFake
Субтитры: Русские (форсированные - отдельно)-Режиссер: Чо Иль-хён / Jo Il-hyeong
Сценарий: Мэтт Нэйлор, Чо Иль-хён
Продюсер: Ли Ю-джин, О Хё-джин, Сэми Ким, ...
Оператор: Сон Вон-хо
Композитор: Ким Тхэ-сон
Художник: Со Сон-гён, Чхве И-ён
Монтаж: Щин Мин-гён-В ролях: Ю А-ин, Пак Щин-хе, Чон Бэ-су, Ли Хён-ук, О Хе-вон, Ким Хак-сон, Со Хи-джон, Чу Бо-би, Чон Ун-джон, Ли Чхэ-гён и др.-Описание: Молодой бездельник О Джон-у собирался провести очередной день как обычно - за видеоиграми, но внезапно в Сеуле происходит прорыв зомбивирусной инфекции. Пока эпидемия набирает обороты, и соседи по небольшому жилому комплексу мечутся в панике, распространяя заразу, парень успевает забаррикадироваться у себя в квартире. Через некоторое время Джон-у заметит, что в доме напротив так же как и он прячется девушка.-Качество: WEB-DLRip
Формат: avi
Видео кодек: XviD
Аудио кодек: AC-3
Видео: 720x304; 1 922 kb/s; 23.976
Аудио: 192 kb/s; 2 channels; 44.1 kHz-

Скриншоты

MI

General
Format : AVI
Format/Info : Audio Video Interleave
File size : 1.46 GiB
Duration : 1 h 38 min
Overall bit rate : 2 123 kb/s
Writing application : VirtualDubMod 1.5.10.3 | www.virtualdub-fr.org || (build 2550/release)
Writing library : VirtualDubMod build 2550/release
Video
ID : 0
Format : MPEG-4 Visual
Format profile : Advanced Simple@L5
Format settings : BVOP1 / Custom Matrix
Format settings, BVOP : 1
Format settings, QPel : No
Format settings, GMC : No warppoints
Format settings, Matrix : Custom
Codec ID : XVID
Codec ID/Hint : XviD
Duration : 1 h 38 min
Bit rate : 1 922 kb/s
Width : 720 pixels
Height : 304 pixels
Display aspect ratio : 2.35:1
Frame rate : 23.976 (24000/1001) FPS
Original frame rate : 23.976 (23976/1000) FPS
Color space : YUV
Chroma subsampling : 4:2:0
Bit depth : 8 bits
Scan type : Progressive
Compression mode : Lossy
Bits/(Pixel*Frame) : 0.366
Stream size : 1.32 GiB (91%)
Writing library : XviD 69
Audio
ID : 1
Format : AC-3
Format/Info : Audio Coding 3
Commercial name : Dolby Digital
Codec ID : 2000
Duration : 1 h 38 min
Bit rate mode : Constant
Bit rate : 192 kb/s
Channel(s) : 2 channels
Channel layout : L R
Sampling rate : 44.1 kHz
Frame rate : 28.711 FPS (1536 SPF)
Compression mode : Lossy
Stream size : 135 MiB (9%)
Alignment : Split across interleaves
Interleave, duration : 42 ms (1.00 video frame)
Interleave, preload duration : 500 ms
Service kind : Complete Main

Интересные факты

* Съёмочный период - с 1 октября по 12 декабря 2019 года.
[202111.mytorrents.biz].t680639.torrent
 GOLD TORRENT! DOWNLOAD TRAFFIC DOES NOT CONSIDER! 
Осталось: [ 07-Aug-2021 18:20 ]
Torrent: Registered [ 2020-08-07 17:08 ] · 1A295833896B12F1C5F9BC4D34F32B0BE0CB5D9A

Download .torrent

Download


Помочь трекеру

Status: checked
Size: 1.46 GB   (Completed: 22 times)
Rate: 
(Vote: 1)
Has thanked: 3  Thanks   (List)
Золото/Серебро:

Инструкция
Похожие темы
Display posts:    
Reply to topic

Current time is: 25-Nov 22:32

All times are UTC + 5



You cannot post new topics in this forum
You cannot reply to topics in this forum
You cannot edit your posts in this forum
You cannot delete your posts in this forum
You cannot vote in polls in this forum
You cannot attach files in this forum
You cannot download files in this forum