Скачать Пакт / El pacto (Дэвид Виктори / David Victori) [2018, ужасы, триллер, детектив, мистика, BDRip] (MVO : SDI Media) в Тас-икс (Tas-ix)

DL-List and Torrent activity
Size:  1.44 GB   |    Registered:  3 months 30 days   |    Completed:  17 times
Seeders:  2  [  0 KB/s  ]   Show peers in full details
 
 
 
 
Author Message

tomas ®

Gender: Male

Longevity: 6 years 10 months

Posts: 1716

Репутация: 183 [+]

Наличие запрета:

[Profile] [PM]

Post 02-Aug-2020 13:23

[Quote]

Пакт / El pacto- Год выпуска: 2018
Страна: Испания
Жанр: ужасы, триллер, детектив, мистика
Слоган: «Evil always claims its debt»
Продолжительность: 01:45:37
Рейтинг MPAA: R-Перевод: Профессиональный (многоголосый закадровый) SDI Media
Cубтитры: нет-Режиссер: Дэвид Виктори / David Victori
Сценарий: Хорди Вальехо, Дэвид Виктори
Продюсер: Рикардо Марко Буде, Хорди Гасуль, Эдмон Рош, ...
Оператор: Элиас М. Феликс
Композитор: Микель Колл
Художник: Elisa Sirvent, Патрик Сальвадор, Патриция Мартинез Феликс, ...
Монтаж: Гильермо де ла Каль-В ролях: Белен Руэда, Mireia Oriol, Дарио Грандинетти, Антонио Дуран «Моррис», Хосеан Бенгоэчеа, Карлос Фабрегас, Vanessa Buchaca, Оскар Форонда, Пол Эрмосо, Sebastian Montecino и др-Описание: Дочь Моники Клара впадает в кому, врачи дают самые неутешительные прогнозы. Сходящая с ума от отчаяния мать готова на все, чтобы вернуть любимую дочь из небытия, — даже на сделку со сверхъестественными силами, которая грозит самыми ужасными последствиями.-Качество видео: BDRip
Формат видео: AVI
Видео: XviD; 720x304; 1 555 kb/s; 24.000 FPS
Аудио: AC-3; 384 kb/s; 2 channels; 48.0 kHz-

MediaInfo

General
Format : AVI
Format/Info : Audio Video Interleave
File size : 1.44 GiB
Duration : 1 h 45 min
Overall bit rate : 1 949 kb/s
Writing application : VirtualDubMod 1.5.10.3 | www.virtualdub-fr.org || (build 2550/release)
Copyright : MegaPeer
Video
ID : 0
Format : MPEG-4 Visual
Format profile : Advanced Simple@L5
Format settings, BVOP : 1
Format settings, QPel : No
Format settings, GMC : No warppoints
Format settings, Matrix : Custom
Codec ID : XVID
Codec ID/Hint : XviD
Duration : 1 h 45 min
Bit rate : 1 555 kb/s
Width : 720 pixels
Height : 304 pixels
Display aspect ratio : 2.35:1
Frame rate : 24.000 FPS
Color space : YUV
Chroma subsampling : 4:2:0
Bit depth : 8 bits
Scan type : Progressive
Compression mode : Lossy
Bits/(Pixel*Frame) : 0.296
Stream size : 1.15 GiB (80%)
Writing library : XviD 73
Audio
ID : 1
Format : AC-3
Format/Info : Audio Coding 3
Mode extension : CM (complete main)
Format settings, Endianness : Big
Codec ID : 2000
Duration : 1 h 45 min
Bit rate mode : Constant
Bit rate : 384 kb/s
Channel(s) : 2 channels
Channel positions : Front: L R
Sampling rate : 48.0 kHz
Frame rate : 31.250 FPS (1536 spf)
Bit depth : 16 bits
Compression mode : Lossy
Stream size : 290 MiB (20%)
Alignment : Split accross interleaves
Interleave, duration : 42 ms (1.00 video frame)
Interleave, preload duration : 500 ms

Скриншоты

[202111.mytorrents.biz].t680586.torrent
Torrent: Registered [ 2020-08-02 13:23 ] · 6E8007FBB34794762BB44DB8876A4A1F525D9ED8

Download .torrent

Download


Помочь трекеру

Status: checked
Size: 1.44 GB   (Completed: 17 times)
Rate: 
(Vote: 1)
Has thanked: 2  Thanks   (List)
Золото/Серебро:

Инструкция
Похожие темы
Display posts:    
Reply to topic

Current time is: 02-Dec 02:42

All times are UTC + 5



You cannot post new topics in this forum
You cannot reply to topics in this forum
You cannot edit your posts in this forum
You cannot delete your posts in this forum
You cannot vote in polls in this forum
You cannot attach files in this forum
You cannot download files in this forum