Скачать Изгоняющий дьявола: Абаддон / The Assent (Пирри Реджинальд Тео / Perry Reginald Theo) [2019, Ужасы, триллер, WEB-DL 1080p] iTunes в Тас-икс (Tas-ix)

DL-List and Torrent activity
Size:  4.36 GB   |    Registered:  4 months 24 days   |    Completed:  4 times
Seeders:  1  [  0 KB/s  ]   Show peers in full details
 
 
 
 
Author Message

NuRKHoNoFF ®

Gender: Male

Longevity: 2 years 8 months

Posts: 1053

Location: Каттакурган

Репутация: 226 [+]

Наличие запрета:

[Profile] [PM]

Post 12-Jul-2020 23:36

[Quote]

Изгоняющий дьявола: Абаддон / The Assent -Год выпуска: 2019
Страна: США
Жанр: Ужасы, триллер
Продолжительность: 01:27:46
Перевод: Дублированный [iTunes]-Субтитры: Английиские-Режиссер: Марк Мерфи / Mark Murphy-В ролях: Роберт Казински, Питер Джейсон, Флоренс Ванида Фэйвр, Кэйден Драгомер, Ханна Уорд, Дуглас Спэйн, Эйлин Дитц, Маргарита Рейес-Описание: Над семьёй Джоэла нависло проклятие. Недавно скончалась его жена, а маленького сына мучают кошмары. Призванный в дом священник убеждён, что их род захватил древний демон разрушения Абаддон, принимающий разные обличия. Если демона не остановить, его власть распространится и на другие семьи...- -Качество: WEB-DL 1080p
Формат: MKV
Видео: AVC, 5995 Kb/s, 1920x816
Аудио №1: AC3, 6 ch, 384 Kb/s | RUS
Аудио №2: AC3, 6 ch, 384 Kb/s | ENG
Аудио №3: AC3, 6 ch, 384 Kb/s | UKR-

MediaInfo

Complete name : The.Assent.2019.AMZN.WEB-DL.1080p.ELEKTRI4KA.UNIONGANG.mkv
Format : Matroska
Format version : Version 4 / Version 2
File size : 4.36 GiB
Duration : 1 h 27 min
Overall bit rate : 7 108 kb/s
Movie name : .ELEKTRI4KA.UNIONGANG.
Encoded date : UTC 2020-07-12 14:52:56
Writing application : mkvmerge v8.3.0 ('Over the Horizon') 64bit
Writing library : libebml v1.3.1 + libmatroska v1.4.2
Video
ID : 1
Format : AVC
Format/Info : Advanced Video Codec
Format profile : High@L4
Format settings, CABAC : Yes
Format settings, Reference frames : 4 frames
Codec ID : V_MPEG4/ISO/AVC
Duration : 1 h 27 min
Bit rate mode : Constant
Bit rate : 5 995 kb/s
Nominal bit rate : 10 000 kb/s
Width : 1 920 pixels
Height : 816 pixels
Display aspect ratio : 2.35:1
Frame rate mode : Constant
Frame rate : 23.976 (24000/1001) FPS
Color space : YUV
Chroma subsampling : 4:2:0
Bit depth : 8 bits
Scan type : Progressive
Bits/(Pixel*Frame) : 0.160
Stream size : 3.68 GiB (84%)
Title : .ELEKTRI4KA.UNIONGANG.
Language : English
Default : Yes
Forced : No
Color range : Limited
Color primaries : BT.709
Transfer characteristics : BT.709
Matrix coefficients : BT.709
Audio #1
ID : 2
Format : AC-3
Format/Info : Audio Coding 3
Mode extension : CM (complete main)
Format settings, Endianness : Big
Codec ID : A_AC3
Duration : 1 h 27 min
Bit rate mode : Constant
Bit rate : 384 kb/s
Channel(s) : 6 channels
Channel positions : Front: L C R, Side: L R, LFE
Sampling rate : 48.0 kHz
Frame rate : 31.250 FPS (1536 spf)
Bit depth : 16 bits
Compression mode : Lossy
Stream size : 241 MiB (5%)
Title : iTunes
Language : Russian
Default : Yes
Forced : No
Audio #2
ID : 3
Format : AC-3
Format/Info : Audio Coding 3
Mode extension : CM (complete main)
Format settings, Endianness : Big
Codec ID : A_AC3
Duration : 1 h 18 min
Bit rate mode : Constant
Bit rate : 384 kb/s
Channel(s) : 6 channels
Channel positions : Front: L C R, Side: L R, LFE
Sampling rate : 48.0 kHz
Frame rate : 31.250 FPS (1536 spf)
Bit depth : 16 bits
Compression mode : Lossy
Stream size : 215 MiB (5%)
Title : iTunes
Language : Ukrainian
Default : No
Forced : No
Audio #3
ID : 4
Format : AC-3
Format/Info : Audio Coding 3
Mode extension : CM (complete main)
Format settings, Endianness : Big
Codec ID : A_AC3
Duration : 1 h 27 min
Bit rate mode : Constant
Bit rate : 384 kb/s
Channel(s) : 6 channels
Channel positions : Front: L C R, Side: L R, LFE
Sampling rate : 48.0 kHz
Frame rate : 31.250 FPS (1536 spf)
Bit depth : 16 bits
Compression mode : Lossy
Stream size : 241 MiB (5%)
Language : English
Default : No
Forced : No
Text #1
ID : 5
Format : UTF-8
Codec ID : S_TEXT/UTF8
Codec ID/Info : UTF-8 Plain Text
Duration : 1 h 20 min
Bit rate : 52 b/s
Count of elements : 920
Stream size : 31.0 KiB (0%)
Language : English
Default : No
Forced : No
Text #2
ID : 6
Format : UTF-8
Codec ID : S_TEXT/UTF8
Codec ID/Info : UTF-8 Plain Text
Duration : 1 h 27 min
Bit rate : 50 b/s
Count of elements : 979
Stream size : 32.4 KiB (0%)
Title : SDH
Language : English
Default : No
Forced : No
[202111.mytorrents.biz].t680409.torrent
 GOLD TORRENT! DOWNLOAD TRAFFIC DOES NOT CONSIDER! 
Вечный
Torrent: Registered [ 2020-07-12 23:36 ] · 928FF5372D52F935B15E8218E63CD6AD6700734D

Download .torrent

Download


Помочь трекеру

Status: checked
Size: 4.36 GB   (Completed: 4 times)
Rate: 
(Vote: 2)
Has thanked: 2  Thanks   (List)
Золото/Серебро:

Инструкция
Похожие темы
Display posts:    
Reply to topic

Current time is: 06-Dec 02:32

All times are UTC + 5



You cannot post new topics in this forum
You cannot reply to topics in this forum
You cannot edit your posts in this forum
You cannot delete your posts in this forum
You cannot vote in polls in this forum
You cannot attach files in this forum
You cannot download files in this forum