Скачать Бессмертная гвардия / The Old Guard (Джина Принс-Байтвуд / Gina Prince-Bythewood) [2020, Фэнтези, боевик, WEB-DL 1080p] Лицензия в Тас-икс (Tas-ix)

DL-List and Torrent activity
Size:  2.78 GB   |    Registered:  4 months 21 day   |    Completed:  22 times
Seeders:  3  [  0 KB/s  ]   Show peers in full details
   
 
Author Message

NuRKHoNoFF ®

Gender: Male

Longevity: 2 years 8 months

Posts: 1053

Location: Каттакурган

Репутация: 226 [+]

Наличие запрета:

[Profile] [PM]

Post 12-Jul-2020 05:34

[Quote]

Бессмертная гвардия / The Old Guard -Год выпуска: 2020
Страна: США
Жанр: Фэнтези, боевик
Продолжительность: 02:05:37
Перевод: Профессиональный (полное дублирование) [Пифагор]-Субтитры: Русские английиские-Режиссер: Джина Принс-Байтвуд / Gina Prince-Bythewood-В ролях: Шарлиз Терон, КиКи Лэйн, Маттиас Шонартс, Марван Кензари, Лука Маринелли, Чиветел Эджиофор, Гарри Меллинг, Вероника Нго, Наташа Карам, Метте Таули-Описание: Группа бессмертных воинов из разных эпох на протяжении веков сражается бок о бок под командованием Энди, некогда известной как Андромаха из Скифии. Однажды они узнают о существовании нового бессмертного..
- -Качество: WEB-DL 1080p
Формат: MKV
Видео: AVC, 2500 Kb/s, 1920x804
Аудио №1: AC3, 6 ch, 448 Kb/s | RUS
Аудио №2: AAC, 6 ch, 224 Kb/s | ENG-

MediaInfo

General
Unique ID : 86291211951329048682381164918061407378 (0x40EB15392923814851A53EA5654C1C92)
Complete name : The.Old.Guard.2020.WEB-DL.1080p.x264.ELEKTRI4KA.UNIONGANG.mkv
Format : Matroska
Format version : Version 4
File size : 2.78 GiB
Duration : 2 h 5 min
Overall bit rate : 3 173 kb/s
Movie name : The.Old.Guard.2020.WEB-DL.1080p.x264.ELEKTRI4KA.UNIONGANG.mkv
Encoded date : UTC 2020-07-11 20:18:09
Writing application : mkvmerge v45.0.0 ('Heaven in Pennies') 64-bit
Writing library : libebml v1.3.10 + libmatroska v1.5.2
Video
ID : 1
Format : AVC
Format/Info : Advanced Video Codec
Format profile : High@L4.1
Format settings : CABAC / 4 Ref Frames
Format settings, CABAC : Yes
Format settings, Reference : 4 frames
Codec ID : V_MPEG4/ISO/AVC
Duration : 2 h 5 min
Bit rate : 2 500 kb/s
Width : 1 920 pixels
Height : 804 pixels
Display aspect ratio : 2.40:1
Frame rate mode : Constant
Frame rate : 24.000 FPS
Color space : YUV
Chroma subsampling : 4:2:0
Bit depth : 8 bits
Scan type : Progressive
Bits/(Pixel*Frame) : 0.067
Stream size : 2.19 GiB (79%)
Title : ELEKTRI4KA.UNIONGANG
Writing library : x264 core 152 r2851M ba24899
Encoding settings : cabac=1 / ref=4 / deblock=1:-1:-1 / analyse=0x3:0x113 / me=umh / subme=9 / psy=1 / psy_rd=1.00:0.15 / mixed_ref=1 / me_range=24 / chroma_me=1 / trellis=2 / 8x8dct=1 / cqm=0 / deadzone=21,11 / fast_pskip=1 / chroma_qp_offset=-3 / threads=16 / lookahead_threads=4 / sliced_threads=0 / nr=0 / decimate=1 / interlaced=0 / bluray_compat=0 / constrained_intra=0 / bframes=3 / b_pyramid=2 / b_adapt=2 / b_bias=0 / direct=3 / weightb=1 / open_gop=0 / weightp=2 / keyint=250 / keyint_min=25 / scenecut=40 / intra_refresh=0 / rc_lookahead=50 / rc=2pass / mbtree=1 / bitrate=2500 / ratetol=1.0 / qcomp=0.60 / qpmin=0 / qpmax=69 / qpstep=4 / cplxblur=20.0 / qblur=0.5 / vbv_maxrate=31250 / vbv_bufsize=31250 / nal_hrd=none / filler=0 / ip_ratio=1.40 / aq=3:1.00
Language : Russian
Default : Yes
Forced : No
Audio #1
ID : 2
Format : AC-3
Format/Info : Audio Coding 3
Commercial name : Dolby Digital
Codec ID : A_AC3
Duration : 2 h 5 min
Bit rate mode : Constant
Bit rate : 448 kb/s
Channel(s) : 6 channels
Channel layout : L R C LFE Ls Rs
Sampling rate : 48.0 kHz
Frame rate : 31.250 FPS (1536 SPF)
Compression mode : Lossy
Delay relative to video : -43 ms
Stream size : 403 MiB (14%)
Title : NetFlix ELEKTRI4KA.UNIONGANG
Language : Russian
Service kind : Complete Main
Default : Yes
Forced : Yes
Audio #2
ID : 3
Format : AAC LC
Format/Info : Advanced Audio Codec Low Complexity
Codec ID : A_AAC-2
Duration : 2 h 5 min
Bit rate : 224 kb/s
Channel(s) : 6 channels
Channel layout : C L R Ls Rs LFE
Sampling rate : 48.0 kHz
Frame rate : 46.875 FPS (1024 SPF)
Compression mode : Lossy
Delay relative to video : -43 ms
Stream size : 201 MiB (7%)
Title : ELEKTRI4KA.UNIONGANG
Language : English
Default : No
Forced : No
Text #1
ID : 4
Format : UTF-8
Codec ID : S_TEXT/UTF8
Codec ID/Info : UTF-8 Plain Text
Duration : 2 h 3 min
Bit rate : 53 b/s
Count of elements : 1122
Stream size : 48.8 KiB (0%)
Title : Forced
Language : Russian
Default : No
Forced : No
Text #2
ID : 5
Format : UTF-8
Codec ID : S_TEXT/UTF8
Codec ID/Info : UTF-8 Plain Text
Duration : 1 h 56 min
Bit rate : 60 b/s
Count of elements : 1492
Stream size : 51.8 KiB (0%)
Title : Full
Language : English
Default : No
Forced : No
Text #3
ID : 6
Format : UTF-8
Codec ID : S_TEXT/UTF8
Codec ID/Info : UTF-8 Plain Text
Duration : 1 h 12 min
Bit rate : 0 b/s
Count of elements : 16
Stream size : 264 Bytes (0%)
Title : SDH
Language : English
Default : No
Forced : No
[202111.mytorrents.biz].t680405.torrent
 GOLD TORRENT! DOWNLOAD TRAFFIC DOES NOT CONSIDER! 
Вечный
Torrent: Registered [ 2020-07-12 05:34 ] · BC92436B6894CE0E198EE423F9F46AE84F6B03FB

Download .torrent

Download


Помочь трекеру

Status: checked
Size: 2.78 GB   (Completed: 22 times)
Rate: 
(Vote: 4)
Has thanked: 5  Thanks   (List)
Золото/Серебро:

Инструкция
Похожие темы

samueleljakson

Gender: Unknown

Longevity: 2 years 11 months

Posts: 3

Репутация: 2 [+]

Наличие запрета:

[Profile] [PM]

Post 16-Jul-2020 22:27 (after 4 days)

[Quote]

2 часа в жизни в никуда
Display posts:    
Reply to topic

Current time is: 03-Dec 02:12

All times are UTC + 5



You cannot post new topics in this forum
You cannot reply to topics in this forum
You cannot edit your posts in this forum
You cannot delete your posts in this forum
You cannot vote in polls in this forum
You cannot attach files in this forum
You cannot download files in this forum