Скачать Бессмертная гвардия / The Old Guard (Джина Принс-Байтвуд / Gina Prince-Bythewood) [2020, Фэнтези, боевик, WEB-DL 1080p, HEVC 10bit] Лицензия в Тас-икс (Tas-ix)

DL-List and Torrent activity
Size:  2.35 GB   |    Registered:  4 months 17 days   |    Completed:  5 times
Seeders:  1  [  0 KB/s  ]   Show peers in full details
 
 
 
 
Author Message

NuRKHoNoFF ®

Gender: Male

Longevity: 2 years 8 months

Posts: 1053

Location: Каттакурган

Репутация: 226 [+]

Наличие запрета:

[Profile] [PM]

Post 12-Jul-2020 05:33

[Quote]

Бессмертная гвардия / The Old Guard -Год выпуска: 2020
Страна: США
Жанр: Фэнтези, боевик
Продолжительность: 02:05:37
Перевод: Профессиональный (полное дублирование) [Пифагор]-Субтитры: Русские английиские-Режиссер: Джина Принс-Байтвуд / Gina Prince-Bythewood-В ролях: Шарлиз Терон, КиКи Лэйн, Маттиас Шонартс, Марван Кензари, Лука Маринелли, Чиветел Эджиофор, Гарри Меллинг, Вероника Нго, Наташа Карам, Метте Таули-Описание: Группа бессмертных воинов из разных эпох на протяжении веков сражается бок о бок под командованием Энди, некогда известной как Андромаха из Скифии. Однажды они узнают о существовании нового бессмертного..
- -Качество: WEB-DL 1080p | HEVC 10bit
Формат: MKV (x265)
Видео: HEVC, 2001 Kb/s, 1920x804
Аудио №1: AC3, 6 ch, 448 Kb/s | RUS
Аудио №2: AAC, 6 ch, 224 Kb/s | ENG-

MediaInfo

General
Unique ID : 211641510039151832533344343330801474833 (0x9F38AC1311B95E76B941F1E533665D11)
Complete name : The.Old.Guard.2020.WEB-DL.1080p.x265.ELEKTRI4KA.UNIONGANG.mkv
Format : Matroska
Format version : Version 4
File size : 2.35 GiB
Duration : 2 h 5 min
Overall bit rate : 2 675 kb/s
Movie name : The.Old.Guard.2020.WEB-DL.1080p.x265.ELEKTRI4KA.UNIONGANG.mkv
Encoded date : UTC 2020-07-11 07:42:25
Writing application : mkvmerge v45.0.0 ('Heaven in Pennies') 64-bit
Writing library : libebml v1.3.10 + libmatroska v1.5.2
Video
ID : 1
Format : HEVC
Format/Info : High Efficiency Video Coding
Format profile : Main 10@L4@Main
Codec ID : V_MPEGH/ISO/HEVC
Duration : 2 h 5 min
Bit rate : 2 001 kb/s
Width : 1 920 pixels
Height : 804 pixels
Display aspect ratio : 2.40:1
Frame rate mode : Constant
Frame rate : 24.000 FPS
Color space : YUV
Chroma subsampling : 4:2:0
Bit depth : 10 bits
Bits/(Pixel*Frame) : 0.054
Stream size : 1.76 GiB (75%)
Title : ELEKTRI4KA.UNIONGANG
Writing library : x265 3.3+4-rarbg-30eb4de83092:[Linux][GCC 8.3.1][64 bit] 10bit
Encoding settings : cpuid=1111039 / frame-threads=4 / wpp / no-pmode / no-pme / no-psnr / no-ssim / log-level=2 / input-csp=1 / input-res=1920x804 / interlace=0 / total-frames=0 / level-idc=0 / high-tier=1 / uhd-bd=0 / ref=4 / no-allow-non-conformance / no-repeat-headers / annexb / no-aud / no-hrd / info / hash=0 / no-temporal-layers / open-gop / min-keyint=24 / keyint=250 / gop-lookahead=0 / bframes=4 / b-adapt=2 / b-pyramid / bframe-bias=0 / rc-lookahead=25 / lookahead-slices=4 / scenecut=40 / hist-scenecut=0 / radl=0 / no-splice / no-intra-refresh / ctu=64 / min-cu-size=8 / rect / no-amp / max-tu-size=32 / tu-inter-depth=1 / tu-intra-depth=1 / limit-tu=0 / rdoq-level=2 / dynamic-rd=0.00 / no-ssim-rd / signhide / no-tskip / nr-intra=0 / nr-inter=0 / no-constrained-intra / strong-intra-smoothing / max-merge=3 / limit-refs=3 / limit-modes / me=3 / subme=3 / merange=57 / temporal-mvp / no-frame-dup / no-hme / weightp / no-weightb / no-analyze-src-pics / deblock=0:0 / no-sao / no-sao-non-deblock / rd=4 / selective-sao=0 / no-early-skip / rskip / no-fast-intra / no-tskip-fast / no-cu-lossless / no-b-intra / no-splitrd-skip / rdpenalty=0 / psy-rd=2.00 / psy-rdoq=1.00 / no-rd-refine / no-lossless / cbqpoffs=0 / crqpoffs=0 / rc=abr / bitrate=2000 / qcomp=0.60 / qpstep=4 / stats-write=0 / stats-read=2 / cplxblur=20.0 / qblur=0.5 / ipratio=1.40 / pbratio=1.30 / aq-mode=3 / aq-strength=1.00 / cutree / zone-count=0 / no-strict-cbr / qg-size=32 / no-rc-grain / qpmax=69 / qpmin=0 / no-const-vbv / sar=1 / overscan=0 / videoformat=5 / range=0 / colorprim=2 / transfer=2 / colormatrix=2 / chromaloc=0 / display-window=0 / cll=0,0 / min-luma=0 / max-luma=1023 / log2-max-poc-lsb=8 / vui-timing-info / vui-hrd-info / slices=1 / no-opt-qp-pps / no-opt-ref-list-length-pps / no-multi-pass-opt-rps / scenecut-bias=0.05 / hist-threshold=0.01 / no-opt-cu-delta-qp / no-aq-motion / no-hdr10 / no-hdr10-opt / no-dhdr10-opt / no-idr-recovery-sei / analysis-reuse-level=0 / analysis-save-reuse-level=0 / analysis-load-reuse-level=0 / scale-factor=0 / refine-intra=0 / refine-inter=0 / refine-mv=1 / refine-ctu-distortion=0 / no-limit-sao / ctu-info=0 / no-lowpass-dct / refine-analysis-type=0 / copy-pic=1 / max-ausize-factor=1.0 / no-dynamic-refine / no-single-sei / no-hevc-aq / no-svt / no-field / qp-adaptation-range=1.00 / no-scenecut-aware-qpconformance-window-offsets / right=0 / bottom=0
Language : Russian
Default : Yes
Forced : No
Audio #1
ID : 2
Format : AC-3
Format/Info : Audio Coding 3
Commercial name : Dolby Digital
Codec ID : A_AC3
Duration : 2 h 5 min
Bit rate mode : Constant
Bit rate : 448 kb/s
Channel(s) : 6 channels
Channel layout : L R C LFE Ls Rs
Sampling rate : 48.0 kHz
Frame rate : 31.250 FPS (1536 SPF)
Compression mode : Lossy
Delay relative to video : -43 ms
Stream size : 403 MiB (17%)
Title : NetFlix ELEKTRI4KA.UNIONGANG
Language : Russian
Service kind : Complete Main
Default : Yes
Forced : Yes
Audio #2
ID : 3
Format : AAC LC
Format/Info : Advanced Audio Codec Low Complexity
Codec ID : A_AAC-2
Duration : 2 h 5 min
Bit rate : 224 kb/s
Channel(s) : 6 channels
Channel layout : C L R Ls Rs LFE
Sampling rate : 48.0 kHz
Frame rate : 46.875 FPS (1024 SPF)
Compression mode : Lossy
Delay relative to video : -43 ms
Stream size : 201 MiB (8%)
Title : ELEKRI4KA.UNIONGANG
Language : English
Default : No
Forced : No
Text #1
ID : 4
Format : UTF-8
Codec ID : S_TEXT/UTF8
Codec ID/Info : UTF-8 Plain Text
Duration : 2 h 3 min
Bit rate : 53 b/s
Count of elements : 1122
Stream size : 48.8 KiB (0%)
Title : Forced
Language : Russian
Default : No
Forced : No
Text #2
ID : 5
Format : UTF-8
Codec ID : S_TEXT/UTF8
Codec ID/Info : UTF-8 Plain Text
Duration : 1 h 56 min
Bit rate : 60 b/s
Count of elements : 1492
Stream size : 51.8 KiB (0%)
Title : Full
Language : English
Default : No
Forced : No
Text #3
ID : 6
Format : UTF-8
Codec ID : S_TEXT/UTF8
Codec ID/Info : UTF-8 Plain Text
Duration : 1 h 12 min
Bit rate : 0 b/s
Count of elements : 16
Stream size : 264 Bytes (0%)
Title : SDH
Language : English
Default : No
Forced : No
[202111.mytorrents.biz].t680404.torrent
 GOLD TORRENT! DOWNLOAD TRAFFIC DOES NOT CONSIDER! 
Вечный
Torrent: Registered [ 2020-07-12 05:33 ] · 7F54A03E5002BC39134E62A7D42620219CE5F306

Download .torrent

Download


Помочь трекеру

Status: checked
Size: 2.35 GB   (Completed: 5 times)
Rate: 
(Vote: 3)
Has thanked: 1  Thanks   (List)
Золото/Серебро:

Инструкция
Похожие темы
Display posts:    
Reply to topic

Current time is: 29-Nov 07:09

All times are UTC + 5



You cannot post new topics in this forum
You cannot reply to topics in this forum
You cannot edit your posts in this forum
You cannot delete your posts in this forum
You cannot vote in polls in this forum
You cannot attach files in this forum
You cannot download files in this forum