Скачать Легенды «Смертельной битвы»: Месть Скорпиона /Mortal Kombat Legends: Scorpions Revenge (Этан Сполдинг) [2020, Боевик , Драма , Зарубежные мультфильмы , Фантастика WEB-DL 720р (LakeFilms)] в Тас-икс (Tas-ix)

DL-List and Torrent activity
Size:  1.74 GB   |    Registered:  7 months 14 days   |    Completed:  76 times

Seeder not seen: 22 hours

 
 
 
 
Author Message

Dr.NemO ®

Gender: Male

Longevity: 6 years 10 months

Posts: 2089

Location: Ташкент

Репутация: 5694 [+]

Наличие запрета:

[Profile] [PM]

Post 15-Apr-2020 09:13

[Quote]

-Cтрана: CША
Название: Легенды «Смертельной битвы»: Месть Скорпиона
Оригинальное название: Mortal Kombat Legends: Scorpions Revenge
Год выпуска: 2020
Жанр: Боевик , Драма , Зарубежные мультфильмы , Фантастика
Продолжительность: 01:20:29
Перевод: Любительский многоголосный | LakeFilms- -Режиссер: Этан Сполдинг-В ролях: Дженнифер Карпентер, Джоэль МакХэйл, Грэй Гриффин, Кевин Майкл Ричардсон, Стивен Блум, Робин Аткин Даунс, Фред Таташиор, Джордан Родригез, Дэрин Де Пол, Патрик Сэйтц-Описание: После выполнения задания Хасашо надеялся уйти на покой. Он знал, какие возможны последствия, но не думал, что всё будет настолько плохо. В его дом пробрались наёмники и убили жену. Когда Хасашо увидел её в таком состоянии, его тело тут же пронзила острая боль, глаза наполнились яростью, а мышцы кровью. Склонившись над телом супруги, он пообещал отомстить за её смерть и разорвать на куски тех, кто осмелился пробраться в их дом. Он убил практически всех, но с их лидером Саб-Зиро ему не удалось справиться. Саб-Зиро забрал жизнь Хасашо, но тот не собирался так просто уходить. Его вернули к жизни и наделили способностями, что он смог отомстить.-Качества: WEB-DL 720р
Формат: mkv
Video:MPEG4 Video (H264) 1280x720 23.976fps [V: h264 high L3.1, yuv420p, 1280x720 [default]]
Audio:Dolby AC3 48000Hz stereo 320kbps [A: ac3, 48000 Hz, stereo, 320 kb/s [default]]-

Медиа инфо

General
Unique ID : 208973429283830129680843122912961192298 (0x9D36D18978C16B074D7E5F10074B616A)
Complete name : D:\Mortal.Kombat.Legends.Scorpions.Revenge.2020.720p.WEB-DL.LakeFilms.mkv
Format : Matroska
Format version : Version 4 / Version 2
File size : 1.74 GiB
Duration : 1h 20mn
Overall bit rate : 3 103 Kbps
Writing application : XviD4PSP 8.0.96
Writing library : Lavf58.29.100
ENCODING_INFO : MATROSKA,WEBM > MKV Пользовательский
Video
ID : 1
Format : AVC
Format/Info : Advanced Video Codec
Format profile : High@L3.1
Format settings, CABAC : Yes
Format settings, ReFrames : 4 frames
Codec ID : V_MPEG4/ISO/AVC
Duration : 1h 20mn
Bit rate : 2 800 Kbps
Width : 1 280 pixels
Height : 720 pixels
Display aspect ratio : 16:9
Frame rate mode : Constant
Frame rate : 23.976 fps
Color space : YUV
Chroma subsampling : 4:2:0
Bit depth : 8 bits
Scan type : Progressive
Bits/(Pixel*Frame) : 0.127
Stream size : 1.53 GiB (88%)
Writing library : x264 core 157 r2958 57baac4
Encoding settings : cabac=1 / ref=3 / deblock=1:-2:-2 / analyse=0x3:0x133 / me=hex / subme=7 / psy=1 / psy_rd=1.00:0.20 / mixed_ref=1 / me_range=16 / chroma_me=1 / trellis=1 / 8x8dct=1 / cqm=0 / deadzone=21,11 / fast_pskip=1 / chroma_qp_offset=-3 / threads=17 / lookahead_threads=2 / sliced_threads=0 / nr=0 / decimate=1 / interlaced=0 / bluray_compat=0 / constrained_intra=0 / bframes=3 / b_pyramid=2 / b_adapt=2 / b_bias=0 / direct=3 / weightb=1 / open_gop=0 / weightp=2 / keyint=240 / keyint_min=24 / scenecut=40 / intra_refresh=0 / rc_lookahead=40 / rc=abr / mbtree=1 / bitrate=2800 / ratetol=1.0 / qcomp=0.60 / qpmin=0 / qpmax=69 / qpstep=4 / ip_ratio=1.40 / aq=1:1.00
Default : Yes
Forced : No
Color range : Limited
Color primaries : BT.709
Transfer characteristics : BT.709
Matrix coefficients : BT.709
ENCODING_INFO : H264 > X264 ABR 2800kbps HQ
Audio
ID : 2
Format : AC-3
Format/Info : Audio Coding 3
Mode extension : CM (complete main)
Format settings, Endianness : Big
Codec ID : A_AC3
Duration : 1h 20mn
Bit rate mode : Constant
Bit rate : 320 Kbps
Channel(s) : 2 channels
Channel positions : Front: L R
Sampling rate : 48.0 KHz
Bit depth : 32 bits
Compression mode : Lossy
Stream size : 184 MiB (10%)
Default : Yes
Forced : No
ENCODING_INFO : AC3 > AC3 CBR 320kbps

Скриншоты

[202111.mytorrents.biz].t679933.torrent
Torrent: Registered [ 2020-04-15 09:13 ] · E79247D05743606287CFF505A53C3586D0CBBE0F

Download .torrent

Download


Помочь трекеру

Status: checked
Size: 1.74 GB   (Completed: 76 times)
Rate: 
(Vote: 9)
Has thanked: 15  Thanks   (List)
Золото/Серебро:

Инструкция
Похожие темы

CkopocTb

Gender: Unknown

Longevity: 4 years 3 months

Posts: 82

Репутация: 4 [+]

Наличие запрета:

[Profile] [PM]

Post 17-Apr-2020 00:22 (after 1 day 15 hours)

[Quote]

Чувствую мульт суперский будет.. Скрины на 18 +.

Dr.NemO ®

Gender: Male

Longevity: 6 years 10 months

Posts: 2089

Location: Ташкент

Репутация: 5694 [+]

Наличие запрета:

[Profile] [PM]

Post 17-Apr-2020 10:35 (after 10 hours)

[Quote]

1452251Чувствую мульт суперский будет.. Скрины на 18 +.
Ну этоже МК. ))
Display posts:    
Reply to topic

Current time is: 29-Nov 16:10

All times are UTC + 5



You cannot post new topics in this forum
You cannot reply to topics in this forum
You cannot edit your posts in this forum
You cannot delete your posts in this forum
You cannot vote in polls in this forum
You cannot attach files in this forum
You cannot download files in this forum