Скачать Короли смеха (Эфир 30.12.2019) [2019г., Юмор, SATRip] в Тас-икс (Tas-ix)

DL-List and Torrent activity
Size:  1.48 GB   |    Registered:  10 months 15 days   |    Completed:  8 times
Seeders:  1  [  0 KB/s  ]   Show peers in full details
 
 
 
 
Author Message

фазилов ®

Gender: Male

Longevity: 5 years 11 months

Posts: 224

Репутация: 247 [+]

Наличие запрета:

[Profile] [PM]

Post 14-Jan-2020 10:06

[Quote]

(ЭФИР 30.12.2019) Год выпуска: 2019
Страна: Россия
Жанр: Юмор
Продолжительность: 01:51:29 Описание: Новый год приближается, и на сцене только признанные мастера – настоящие короли и королевы юмора! Провожаем Старый год с улыбкой! Встречаем Новый год со смехом! Елена Воробей расскажет без прикрас все о "Пластической операции", Евгений Петросян порадует "Всякой всячиной", "Новые русские бабки" и Алексей Щеглов поведуют о встрече с "Приставом", а братья Пономаренко выступят с целым "Финансовым попурри". Посмеемся вместе! Ведь сегодня нас веселят сами "Короли смеха" Качество: SATRip
Формат: AVI

Видео кодек: XviD
Аудио кодек: MP3

Видео: 720х400 (1.80:1), 25 fps, XviD build 50 ~1698 kbps avg
Аудио: 48 kHz, MP3 , 2/0 (L,R) ch, ~192 kbps

Mediainfo


Общее
Полное имя : E:\Мои релизы-2\Короли.смеха.30.12.2019.XviD.SATRip.Kinozal-Reliz.7turza.avi
Формат : AVI
Формат/Информация : Audio Video Interleave
Профиль формата : OpenDML
Размер файла : 1,48 Гбайт
Продолжительность : 1 ч. 51 м.
Общий поток : 1905 Кбит/сек
Название фильма : # from 7turza #
Программа кодирования : Lavf58.29.100
Видео
Идентификатор : 0
Формат : MPEG-4 Visual
Профиль формата : Advanced Simple@L5
Параметр BVOP формата : 1
Параметр QPel формата : Нет
Параметр GMC формата : Без точки перехода
Параметр матрицы формата : Default (H.263)
Идентификатор кодека : XVID
Идентификатор кодека/Подсказка : XviD
Продолжительность : 1 ч. 51 м.
Битрейт : 1698 Кбит/сек
Ширина : 720 пикселей
Высота : 400 пикселей
Соотношение сторон : 16:9
Частота кадров : 25,000 кадров/сек
Цветовое пространство : YUV
Субдискретизация насыщенности : 4:2:0
Битовая глубина : 8 бит
Тип развёртки : Прогрессивная
Метод сжатия : С потерями
Бит/(Пиксели*Кадры) : 0.236
Размер потока : 1,32 Гбайт (89%)
Библиотека кодирования : XviD 67
Аудио
Идентификатор : 1
Формат : MPEG Audio
Версия формата : Version 1
Профиль формата : Layer 3
Режим : Joint stereo
Расширение режима : MS Stereo
Идентификатор кодека : 55
Идентификатор кодека/Подсказка : MP3
Продолжительность : 1 ч. 51 м.
Вид битрейта : Постоянный
Битрейт : 192 Кбит/сек
Каналы : 2 канала
Частота : 48,0 КГц
Метод сжатия : С потерями
Размер потока : 153 Мбайт (10%)
Выравнивание : Соединение по промежуткам
Продолжительность промежутка : 24 мс. (0,60 видеокадр)
Библиотека кодирования : LAME3.100ЄЄЄЄЄЄЄЄЄЄЄ
[202111.mytorrents.biz].t679330.torrent
Torrent: Registered [ 2020-01-14 10:06 ] · 44C3D4B3163B0014505B789F77735E115EBB9771

Download .torrent

Download


Помочь трекеру

Status: checked
Size: 1.48 GB   (Completed: 8 times)
Rate: 
(Vote: 5)
Has thanked: 7  Thanks   (List)
Золото/Серебро:

Инструкция
Похожие темы
Display posts:    
Reply to topic

Current time is: 29-Nov 14:53

All times are UTC + 5



You cannot post new topics in this forum
You cannot reply to topics in this forum
You cannot edit your posts in this forum
You cannot delete your posts in this forum
You cannot vote in polls in this forum
You cannot attach files in this forum
You cannot download files in this forum