Скачать Холодное сердце 2 / Frozen II (Крис Бак, Дженнифер Ли) [2019, мультфильм, мюзикл, фэнтези, комедия, приключения, семейный, DVDScreener] D в Тас-икс (Tas-ix)

DL-List and Torrent activity
Size:  1.46 GB   |    Registered:  10 months 18 days   |    Completed:  46 times
Seeders:  4  [  0 KB/s  ]   Show peers in full details
   
 
Author Message

Ravilya ®

VIP пользователь

Gender: Female

Longevity: 1 year 8 months

Posts: 916

Репутация: 316 [+]

Наличие запрета:

[Profile] [PM]

Post 11-Jan-2020 13:17

[Quote]

Холодное сердце 2 / Frozen II
-Год выпуска: 2019
Страна: США
Жанр: мультфильм, мюзикл, фэнтези, комедия, приключения, семейный
Продолжительность: 01:43:13
Перевод: Профессиональный (полное дублирование) |Звук с онлайн-кинотеатра|-Режиссер: Крис Бак, Дженнифер Ли-В ролях: Идина Мензел, Кристен Белл, Джонатан Грофф, Джош Гэд, Стерлинг К. Браун, Эван Рэйчел Вуд, Альфред Молина, Марта Плимптон, Джейсон Риттер, Рэйчел Мэттьюз-Описание: Анна, Эльза, Кристоф, его верный олень Свен и никогда не унывающий снеговик Олаф должны будут покинуть уютное королевство Эренделл и отправиться ещё дальше на север, в путешествие, которое приведет их к истокам древних легенд и поможет раскрыть тайны, касающиеся прошлого их родной страны.- -Качество: DVDScreener Рекламы нет
Формат: AVI
Видео кодек: XviD
Аудио кодек: AC3
Видео: 720x304 (2.37:1), 23.976 fps, XviD build 67 ~1817 kbps avg, 0.35 bit/pixel
Аудио: 48 kHz, AC3 Dolby Digital, 2/0 (L,R) ch, ~192 kbps avg-

MI

General
Complete name : Frozen_2_2019_DVDScreener_by_Dalemake.avi
Format : AVI
Format/Info : Audio Video Interleave
File size : 1.46 GiB
Duration : 1h 43mn
Overall bit rate : 2 019 Kbps
Writing application : VirtualDubMod 1.5.10.3 | www.virtualdub-fr.org || (build 2550/release)
Writing library : VirtualDubMod build 2550/release
Video
ID : 0
Format : MPEG-4 Visual
Format profile : Advanced Simple@L5
Format settings, BVOP : 1
Format settings, QPel : No
Format settings, GMC : No warppoints
Format settings, Matrix : Custom
Codec ID : XVID
Codec ID/Hint : XviD
Duration : 1h 43mn
Bit rate : 1 818 Kbps
Width : 720 pixels
Height : 304 pixels
Display aspect ratio : 2.35:1
Frame rate : 23.976 (23976/1000) fps
Color space : YUV
Chroma subsampling : 4:2:0
Bit depth : 8 bits
Scan type : Progressive
Compression mode : Lossy
Bits/(Pixel*Frame) : 0.346
Stream size : 1.31 GiB (90%)
Writing library : XviD 67
Audio
ID : 1
Format : AC-3
Format/Info : Audio Coding 3
Mode extension : CM (complete main)
Format settings, Endianness : Big
Codec ID : 2000
Duration : 1h 43mn
Bit rate mode : Constant
Bit rate : 192 Kbps
Channel(s) : 2 channels
Channel positions : Front: L R
Sampling rate : 48.0 KHz
Frame rate : 31.250 fps (1536 spf)
Compression mode : Lossy
Stream size : 142 MiB (10%)
Alignment : Split accross interleaves
Interleave, duration : 42 ms (1.00 video frame)
Interleave, preload duratio : 500 ms
[202111.mytorrents.biz].t679276.torrent
Torrent: Registered [ 2020-01-11 13:17 ] · 775E79C04CCBACF84400A5BC466AED7D8A706C4E

Download .torrent

Download


Помочь трекеру

Status: checked
Size: 1.46 GB   (Completed: 46 times)
Rate: 
(Vote: 7)
Has thanked: 9  Thanks   (List)
Золото/Серебро:

Инструкция
Похожие темы

kolya84

Gender: Unknown

Longevity: 6 years

Posts: 10

Репутация: 0 [+]

Наличие запрета:

[Profile] [PM]

Post 11-Jan-2020 15:54 (after 2 hours 36 minutes)

[Quote]

по чему не качает?

Ravilya ®

VIP пользователь

Gender: Female

Longevity: 1 year 8 months

Posts: 916

Репутация: 316 [+]

Наличие запрета:

[Profile] [PM]

Post 11-Jan-2020 16:04 (after 9 minutes)

[Quote]

1450273по чему не качает?
установите Тередо

NuRKHoNoFF

Gender: Male

Longevity: 2 years 8 months

Posts: 1053

Location: Каттакурган

Репутация: 226 [+]

Наличие запрета:

[Profile] [PM]

Post 11-Jan-2020 16:15 (after 11 minutes)

[Quote]

kolya84, http://mytorrents.biz/viewtopic.php?t=679278 Вот качайте если нужно!
Display posts:    
Reply to topic

Current time is: 29-Nov 15:24

All times are UTC + 5



You cannot post new topics in this forum
You cannot reply to topics in this forum
You cannot edit your posts in this forum
You cannot delete your posts in this forum
You cannot vote in polls in this forum
You cannot attach files in this forum
You cannot download files in this forum