Скачать История игрушек 4 / Toy Story 4 (Джош Кули) [2019, мультфильм, фэнтези, комедия, приключения, семейный, WEB-DLRip] [Чистый звук] в Тас-икс (Tas-ix)

DL-List and Torrent activity
Size:  1.37 GB   |    Registered:  1 year 2 months   |    Completed:  97 times
Seeders:  1  [  0 KB/s  ]   Show peers in full details
 
 
 
 
Author Message

Ravilya ®

VIP пользователь

Gender: Female

Longevity: 1 year 8 months

Posts: 916

Репутация: 316 [+]

Наличие запрета:

[Profile] [PM]

Post 16-Sep-2019 12:51

[Quote]

История игрушек 4 / Toy Story 4 -Год выпуска: 2019
Страна: США
Жанр: мультфильм, фэнтези, комедия, приключения, семейный
Продолжительность: 01:41:01
Перевод: Дублированный Чистый звук-Режиссер: Джош Кули-В ролях: Том Хэнкс, Тим Аллен, Энни Поттс, Тони Хейл, Кигэн-Майкл Ки, Мадлен МакГроу, Кристина Хендрикс, Джордан Пил, Киану Ривз, Элли Матсумура-Описание: Астронавт Базз, ковбой Вуди, пёс Слинки, тиранозавр Рекс и вся команда игрушек снова вместе, и они как никогда готовы к приключениям. С тех пор, как Энди поступил в колледж, игрушки поселились в доме своей новой хозяйки Бонни, которая вот-вот пойдет в детский сад. Первый день в детском саду положит начало череде событий, в которой найдется место и путешествиям с погонями, и знакомству с новыми игрушками, и встречам с некоторыми из старых друзей и даже романтической истории.- -Качество: WEB-DLRip (Присутствует реклама)
Формат: AVI-Видео: 720x304 (2.37:1), 23.976 fps, XviD build 50 ~1673 kbps avg
Аудио: 48 kHz, AC3 Dolby Digital, 2/0 (L,R) ch, ~384 kbps--

MI

General
Format : AVI
Format/Info : Audio Video Interleave
File size : 1.37 GiB
Duration : 1 h 41 min
Overall bit rate : 1 939 kb/s
Writing application : VirtualDubMod 1.5.10.3 | www.virtualdub-fr.org || (build 2550/release)
Writing library : VirtualDubMod build 2550/release
Video
ID : 0
Format : MPEG-4 Visual
Format profile : Advanced Simple@L5
Format settings : BVOP2 / Custom Matrix
Format settings, BVOP : 2
Format settings, QPel : No
Format settings, GMC : No warppoints
Format settings, Matrix : Custom
Codec ID : XVID
Codec ID/Hint : XviD
Duration : 1 h 41 min
Bit rate : 1 673 kb/s
Width : 720 pixels
Height : 304 pixels
Display aspect ratio : 2.35:1
Frame rate : 23.976 (24000/1001) FPS
Color space : YUV
Chroma subsampling : 4:2:0
Bit depth : 8 bits
Scan type : Progressive
Compression mode : Lossy
Bits/(Pixel*Frame) : 0.319
Stream size : 1.18 GiB (86%)
Writing library : XviD 1.2.1 (UTC 2008-12-04)
Audio
ID : 1
Format : AC-3
Format/Info : Audio Coding 3
Commercial name : Dolby Digital
Codec ID : 2000
Duration : 1 h 41 min
Bit rate mode : Constant
Bit rate : 256 kb/s
Channel(s) : 2 channels
Channel layout : L R
Sampling rate : 48.0 kHz
Frame rate : 31.250 FPS (1536 SPF)
Bit depth : 16 bits
Compression mode : Lossy
Stream size : 185 MiB (13%)
Alignment : Split accross interleaves
Interleave, duration : 42 ms (1.00 video frame)
Interleave, preload duratio : 500 ms
Service kind : Complete Main
[202111.mytorrents.biz].t677361.torrent
Torrent: Registered [ 2019-09-16 12:51 ] · 5FF90957AE8BCD131D888D8FE3863882BBF5B27A

Download .torrent

Download


Помочь трекеру

Status: checked
Size: 1.37 GB   (Completed: 97 times)
Rate: 
(Vote: 8)
Has thanked: 13  Thanks   (List)
Золото/Серебро:

Инструкция
Похожие темы

Dr.NemO

Gender: Male

Longevity: 6 years 10 months

Posts: 2089

Location: Ташкент

Репутация: 5694 [+]

Наличие запрета:

[Profile] [PM]

Post 16-Sep-2019 16:14 (after 3 hours)

[Quote]

уже сериалом сталь. Конца не видно этой истории))

polzovatel

Gender: Unknown

Longevity: 6 years 8 months

Posts: 46

Репутация: 15 [+]

Наличие запрета:

[Profile] [PM]

Post 16-Sep-2019 20:32 (after 4 hours)

[Quote]

Детство вспомнилось

Elias703

Gender: Unknown

Longevity: 8 years 9 months

Posts: 1057

Репутация: 198 [+]

Наличие запрета:

[Profile] [PM]

Post 17-Sep-2019 13:16 (after 16 hours)

[Quote]

1442390уже сериалом сталь. Конца не видно этой истории))
звездные воины кажутся незаконченным сезоном .

_________________
Signed off for violation of forum rules
Display posts:    
Reply to topic

Current time is: 03-Dec 06:28

All times are UTC + 5



You cannot post new topics in this forum
You cannot reply to topics in this forum
You cannot edit your posts in this forum
You cannot delete your posts in this forum
You cannot vote in polls in this forum
You cannot attach files in this forum
You cannot download files in this forum