Скачать Смешанные единоборства. UFC 242: Khabib vs. Poirier (07.09) [2019, Смешанные единоборства, HDTVRip 720p] | Первый HD в Тас-икс (Tas-ix)

DL-List and Torrent activity
Size:  1.67 GB   |    Registered:  1 year 2 months   |    Completed:  8 times

Seeder not seen: 5 months 28 days

 
 
 
 
Author Message

tohirali ®

Gender: Male

Longevity: 4 years 1 month

Posts: 758

Репутация: 249 [+]

Наличие запрета:

[Profile] [PM]

Post 08-Sep-2019 23:24

[Quote]

-UFC 242: Khabib vs Poirier-- Вид спорта: Смешанные единоборства
Дата/Год выпуска: 07.09.2019
Язык комментариев: Русский
Комментаторы: Садоков, Волков и Хандошко
Продолжительность: 01:17:15--Описание: 7 сентября 2019 года. Концертная площадка «du Arena», Абу-Даби, ОАЭ (Объединённые Арабские Эмираты).
Главный поединок UFC 242: это бой Хабиб Нурмагомедов — Дастин Порье. Для действующего чемпиона лёгкого веса подготовлено настоящее испытание в виде набравшего великолепный ход американца. Эксперты ММА все как один считают, что именно «Бриллиант» для Нурмагомедова станет самым сильным оппонентом, с которым «Орёл» встречался в восьмиугольнике. Никто, конечно же, не забывает поединок с Конором МакГрегором, однако ирландец оказался не способен оказать сопротивление чемпиону весового дивизиона.
Хабиб Нурмагомедов по-прежнему остаётся непобедимым в профессионалах ММА, в UFC его рекорд достиг отметки 11-0. В послужном списке выигрышей россиянина значатся такие известные бойцы, как Рафаэль Дос Аньос, Эдсон Барбоза, Эл Яквинта и, конечно же, Конор МакГрегор.
Дастин Порье, в свою очередь, подходит к противостоянию с чемпионом во всеоружии. Его победная серия достигла пяти поединков, в которых достаточно просто были обыграны Джим Миллер, Энтони Петтис, Джастин Гэйтжи, Эдди Альварес и Макс Холловэй. Крайний матч позволил «Бриллианту» стать временным чемпионом лёгкого веса и теперь он на полных основаниях готов бороться за титул дивизиона.
В последнее время бойцы не так часто выходят в восьмиугольник, но даже с таким расписанием им спокойно удаётся поддерживать себя в хорошей физической форме. Беспроигрышная серия и феноменальный контроль в партере делают фаворитом противостояния, конечно же, Хабиба Нурмагомедова, однако я бы не стал сбрасывать Дастина Порье со счетов. Представитель США в последнее время отлично проявляет себя на всех участках октагона, успевая мощно атаковать в стойке и качественно бороться на канвасе. Да, ему тяжело будет справиться с напором нашего соотечественника, но он вполне может дать отпор и создать проблемы россиянину. Поклонникам ММА не стоит надеяться на зрелищный поединок. Однако если Дастин Порье сможет найти голову Нурмагомедова в стойке, то любители смешанных единоборств увидят красивое побоище.--Качество: HDTVRip
Формат видео: MKV
Видео: AVC/H.264, 1280x720 (16:9),50,000 кадров/сек, 3000 kbps
Аудио: АС-3, 48000 Hz, 2 channels, stereo, 192 kbps, русский

MediaInfo

General
Unique ID : 206874494919004107055289374404312602423 (0x9BA29415435C07539FEC6A30AF809737)
Complete name : H:\My computer\For upload\,Vremyanka stuffs\UFC_242._Khabib_vs._Poirier._07.09.2019.Первый.50fps.Флудилка.mkv
Format : Matroska
Format version : Version 4 / Version 2
File size : 1.67 GiB
Duration : 1h 17mn
Overall bit rate : 3 088 Kbps
Encoded date : UTC 2019-09-08 01:08:29
Writing application : mkvmerge v8.3.0 ('Over the Horizon') 64bit
Writing library : Lavf56.25.101
ENCODING_INFO : MPEGTS > MKV 720p / H264 > X264 CBR 3000kbps Medium / AAC-LC > AC3 CBR 192kbps Custom
Video
ID : 1
Format : AVC
Format/Info : Advanced Video Codec
Format profile : High@L3.2
Format settings, CABAC : Yes
Format settings, ReFrames : 4 frames
Codec ID : V_MPEG4/ISO/AVC
Duration : 1h 17mn
Bit rate : 2 834 Kbps
Nominal bit rate : 3 000 Kbps
Width : 1 280 pixels
Height : 720 pixels
Display aspect ratio : 16:9
Frame rate mode : Constant
Frame rate : 50.000 fps
Color space : YUV
Chroma subsampling : 4:2:0
Bit depth : 8 bits
Scan type : Progressive
Bits/(Pixel*Frame) : 0.062
Stream size : 1.53 GiB (92%)
Writing library : x264 core 148 r2597M e86f3a1
Encoding settings : cabac=1 / ref=3 / deblock=1:-2:-2 / analyse=0x3:0x113 / me=hex / subme=7 / psy=1 / psy_rd=1.00:0.00 / mixed_ref=1 / me_range=16 / chroma_me=1 / trellis=1 / 8x8dct=1 / cqm=0 / deadzone=21,11 / fast_pskip=1 / chroma_qp_offset=-2 / threads=10 / lookahead_threads=1 / sliced_threads=0 / nr=0 / decimate=1 / interlaced=0 / bluray_compat=0 / constrained_intra=0 / bframes=3 / b_pyramid=2 / b_adapt=1 / b_bias=0 / direct=1 / weightb=1 / open_gop=0 / weightp=2 / keyint=250 / keyint_min=25 / scenecut=40 / intra_refresh=0 / rc_lookahead=40 / rc=cbr / mbtree=1 / bitrate=3000 / ratetol=1.0 / qcomp=0.60 / qpmin=0 / qpmax=69 / qpstep=4 / vbv_maxrate=3000 / vbv_bufsize=3000 / nal_hrd=none / filler=0 / ip_ratio=1.40 / aq=1:1.00
Default : Yes
Forced : No
DURATION : 01:17:13.987000000
NUMBER_OF_FRAMES : 231698
NUMBER_OF_BYTES : 1675484345
_STATISTICS_WRITING_APP : mkvmerge v8.3.0 ('Over the Horizon') 64bit
_STATISTICS_WRITING_DATE_UTC : 2019-09-08 01:08:29
_STATISTICS_TAGS : BPS DURATION NUMBER_OF_FRAMES NUMBER_OF_BYTES
Color primaries : BT.709
Transfer characteristics : BT.709
Matrix coefficients : BT.709
Audio
ID : 2
Format : AC-3
Format/Info : Audio Coding 3
Mode extension : CM (complete main)
Format settings, Endianness : Big
Codec ID : A_AC3
Duration : 1h 17mn
Bit rate mode : Constant
Bit rate : 192 Kbps
Channel(s) : 2 channels
Channel positions : Front: L R
Sampling rate : 48.0 KHz
Bit depth : 16 bits
Compression mode : Lossy
Delay relative to video : 27ms
Stream size : 106 MiB (6%)
Default : Yes
Forced : No
DURATION : 01:17:13.947000000
NUMBER_OF_FRAMES : 144806
NUMBER_OF_BYTES : 111211008
_STATISTICS_WRITING_APP : mkvmerge v8.3.0 ('Over the Horizon') 64bit
_STATISTICS_WRITING_DATE_UTC : 2019-09-08 01:08:29
_STATISTICS_TAGS : BPS DURATION NUMBER_OF_FRAMES NUMBER_OF_BYTES

Скриншоты

[202111.mytorrents.biz].t677248.torrent
Torrent: Registered [ 2019-09-08 23:24 ] · 5FEFA0ED05AA2811C70ED4C885F21F234487F15C

Download .torrent

Download


Помочь трекеру

Status: checked
Size: 1.67 GB   (Completed: 8 times)
Rate: 
(Vote: 14)
Has thanked: 14  Thanks   (List)
Золото/Серебро:

Инструкция
Похожие темы

sart0njke

Gender: Male

Longevity: 7 years 9 months

Posts: 377

Location: Nukus

Репутация: 4019 [+]

Наличие запрета:

[Profile] [PM]

Post 09-Sep-2019 02:10 (after 2 hours 46 minutes)

[Quote]

+5 малочик!

bot.ir

Gender: Unknown

Longevity: 6 years 2 months

Posts: 3

Репутация: 0 [+]

Наличие запрета:

[Profile] [PM]

Post 09-Sep-2019 10:46 (after 8 hours)

[Quote]

Молодчик

tohirali ®

Gender: Male

Longevity: 4 years 1 month

Posts: 758

Репутация: 249 [+]

Наличие запрета:

[Profile] [PM]

Post 09-Sep-2019 23:04 (after 12 hours)

[Quote]

Благодарю, рад стараться. Думал что бой уже посмотрели все, видать не так!!!
Display posts:    
Reply to topic

Current time is: 02-Dec 11:40

All times are UTC + 5



You cannot post new topics in this forum
You cannot reply to topics in this forum
You cannot edit your posts in this forum
You cannot delete your posts in this forum
You cannot vote in polls in this forum
You cannot attach files in this forum
You cannot download files in this forum